<?xml version="1.0" standalone="no"?>
<!DOCTYPE svg PUBLIC "-//W3C//DTD SVG 1.1//EN" "http://www.w3.org/Graphics/SVG/1.1/DTD/svg11.dtd" >
<svg>
<metadata>
Created by FontForge 20110222 at Thu Feb 26 07:24:24 2015
 By deploy user
(c) 1990, 1991, 1993, 2001, 2002 Adobe Systems Incorporated. All rights reserved.
</metadata>
<defs>
<font id="BirchStd" horiz-adv-x="600" >
  <font-face 
    font-family="Birch Std"
    font-weight="400"
    font-stretch="normal"
    units-per-em="1000"
    panose-1="3 6 5 2 4 7 5 6 2 4"
    ascent="750"
    descent="-250"
    x-height="556"
    cap-height="750"
    bbox="-81 -250 1000 926"
    underline-thickness="50"
    underline-position="-50"
    unicode-range="U+0020-FB02"
  />
<missing-glyph horiz-adv-x="500" 
d="M0 0v700h500v-700h-500zM250 395l170 255h-340zM280 350l170 -255v510zM80 50h340l-170 255zM50 605v-510l170 255z" />
    <glyph glyph-name="f_i" unicode="fi" horiz-adv-x="308" 
d="M196 55v453q0 5 -3 8l-30 28q-4 6 -4 8q0 4 6 4h96q5 0 5 -6v-495q0 -7 2 -9l31 -35q4 -4 4 -7q0 -4 -6 -4h-132q-6 0 -6 4q0 3 4 7l31 35q2 2 2 9zM42 55v440q0 7 -9 18l-30 31q-3 2 -4 5t0.5 5t3.5 2h31q8 0 8 9v33q0 70 42 111t91 41q95 0 95 -52q0 -20 -10 -31
t-26 -11q-12 0 -21.5 9t-11.5 20q-6 30 -34 30q-55 0 -55 -123v-27q0 -9 8 -9h30q2 0 3.5 -2t0.5 -5t-4 -5l-30 -31q-8 -10 -8 -18v-440q0 -7 1 -9l37 -35q4 -4 4 -7q0 -4 -6 -4h-137q-6 0 -6 4t4 7l31 35q2 2 2 9z" />
    <glyph glyph-name="f_l" unicode="fl" horiz-adv-x="312" 
d="M42 55v440q0 7 -9 18l-30 31q-3 2 -4 5t0.5 5t3.5 2h31q8 0 8 9v33q0 70 42 111t91 41h90q5 0 5 -6v-689q0 -7 2 -9l31 -35q4 -4 4 -7q0 -4 -6 -4h-132q-6 0 -6 4q0 3 4 7l31 35q2 2 2 9v647q0 5 -13 9t-20 4q-55 0 -55 -123v-27q0 -9 8 -9h30q2 0 3.5 -2t0.5 -5t-4 -5
l-30 -31q-8 -10 -8 -18v-440q0 -7 1 -9l37 -35q4 -4 4 -7q0 -4 -6 -4h-137q-6 0 -6 4t4 7l31 35q2 2 2 9z" />
    <glyph glyph-name=".notdef" horiz-adv-x="500" 
d="M0 0v700h500v-700h-500zM250 395l170 255h-340zM280 350l170 -255v510zM80 50h340l-170 255zM50 605v-510l170 255z" />
    <glyph glyph-name=".null" horiz-adv-x="0" 
 />
    <glyph glyph-name="nonmarkingreturn" horiz-adv-x="333" 
 />
    <glyph glyph-name="space" unicode=" " horiz-adv-x="120" 
 />
    <glyph glyph-name="exclam" unicode="!" horiz-adv-x="146" 
d="M62 196l-30 491q-5 63 41 63t41 -63l-30 -491q-2 -16 -11 -16t-11 16zM73 101q36 0 36 -51q0 -50 -36 -50q-18 0 -27 15t-9 35q0 21 9 36t27 15z" />
    <glyph glyph-name="quotedbl" unicode="&#x22;" horiz-adv-x="257" 
d="M67 762q14 0 22 -12.5t8 -30.5q0 -10 -3 -44t-7 -83t-6 -72q-3 -27 -14 -27t-14 27q-2 23 -6 72t-7 83t-3 44q0 18 8 30.5t22 12.5zM190 762q14 0 22 -12.5t8 -30.5q0 -10 -3 -44t-7 -83t-6 -72q-3 -27 -14 -27t-14 27q-2 23 -6 72t-7 83t-3 44q0 18 8 30.5t22 12.5z" />
    <glyph glyph-name="numbersign" unicode="#" 
d="M515 272l4 -45h-111l-32 -227h-50l32 227h-141l-32 -227h-50l32 227h-110l-4 45h120l22 156h-110l-4 45h120l32 227h50l-32 -227h141l32 227h50l-32 -227h101l4 -45h-111l-22 -156h101zM386 428h-141l-22 -156h141z" />
    <glyph glyph-name="dollar" unicode="$" horiz-adv-x="307" 
d="M131 496v170q-15 -1 -24 -19t-9 -40q0 -41 31 -111h2zM173 271v-179q17 1 27.5 19.5t10.5 45.5q0 43 -17 77l-19 37h-2zM173 666v-253l63 -121q29 -55 29 -116q0 -63 -29 -93.5t-63 -34.5l4 -48h-50l4 48q-37 3 -62.5 54t-25.5 119q0 11 8 11q9 0 9 -11q0 -43 22.5 -85.5
t48.5 -43.5v265l-37 72q-26 52 -36 88.5t-10 82.5q0 44 25 74.5t58 35.5l-4 40h50l-4 -40q35 -3 63.5 -52.5t28.5 -115.5q0 -10 -8 -10q-9 0 -9 10q0 36 -25 79.5t-50 44.5z" />
    <glyph glyph-name="percent" unicode="%" horiz-adv-x="461" 
d="M347 333q-42 0 -42 -152q0 -153 42 -153q43 0 43 153q0 152 -43 152zM352 739l-201 -739l-43 11l201 739zM113 722q-42 0 -42 -152q0 -153 42 -153q43 0 43 153q0 152 -43 152zM347 361q40 0 71 -41.5t31 -138.5q0 -98 -31 -139.5t-71 -41.5q-39 0 -70 41.5t-31 139.5
q0 97 31 138.5t70 41.5zM113 750q40 0 71 -41.5t31 -138.5q0 -98 -31 -139.5t-71 -41.5q-39 0 -70 41.5t-31 139.5q0 97 31 138.5t70 41.5z" />
    <glyph glyph-name="ampersand" unicode="&#x26;" horiz-adv-x="385" 
d="M242 369h137q6 0 6 -5q0 -6 -6 -9l-32 -30q0 -110 -11.5 -168t-38.5 -91q9 -18 22 -18q12 0 24.5 11t19.5 22q2 4 5.5 3.5t3.5 -5.5q0 -28 -18.5 -53.5t-53.5 -25.5q-31 0 -52 21q-29 -21 -70 -21q-74 0 -116 48.5t-42 127.5q0 64 20 109.5t58 95.5l19 25l-10 40
q-23 90 -23 168q0 59 29 97.5t73 38.5q40 0 62.5 -30t22.5 -83q0 -103 -72 -208l-13 -19l9 -35q46 -180 73 -251q17 26 22 105.5t-18 104.5l-30 22q-7 5 -7 8q0 5 7 5zM147 286l-12 48q-44 -50 -44 -144q0 -63 26 -102.5t61 -39.5q28 0 42 16q-37 79 -73 222zM169 475l10 14
q43 60 43 144q0 69 -37 69q-34 0 -42 -50t10 -114z" />
    <glyph glyph-name="quotesingle" unicode="'" horiz-adv-x="134" 
d="M67 762q14 0 22 -12.5t8 -30.5q0 -10 -3 -44t-7 -83t-6 -72q-3 -27 -14 -27t-14 27q-2 23 -6 72t-7 83t-3 44q0 18 8 30.5t22 12.5z" />
    <glyph glyph-name="parenleft" unicode="(" horiz-adv-x="226" 
d="M36 382q0 89 18 162t46 116t56 67.5t52 29.5q7 1 8.5 -5.5t-4.5 -9.5q-35 -17 -66.5 -110t-31.5 -250q0 -166 31.5 -261.5t66.5 -112.5q6 -3 4.5 -9.5t-8.5 -5.5q-25 5 -52.5 29.5t-55.5 69t-46 120.5t-18 170z" />
    <glyph glyph-name="parenright" unicode=")" horiz-adv-x="226" 
d="M190 382q0 -94 -18 -170t-46 -120.5t-55.5 -69t-52.5 -29.5q-7 -1 -8.5 5.5t4.5 9.5q35 17 66.5 112.5t31.5 261.5q0 157 -31.5 250t-66.5 110q-6 3 -4.5 9.5t8.5 5.5q24 -5 52 -29.5t56 -67.5t46 -116t18 -162z" />
    <glyph glyph-name="asterisk" unicode="*" horiz-adv-x="278" 
d="M115 642l18 103q1 5 6 5t6 -5l18 -103l85 11q4 1 5.5 -3.5t-2.5 -6.5l-81 -47l56 -105q2 -4 -1 -7t-7 0l-78 72l-80 -72q-4 -3 -7 0t-1 7l56 105l-81 47q-4 2 -2.5 6.5t5.5 3.5z" />
    <glyph glyph-name="plus" unicode="+" 
d="M275 278v228h50v-228h227v-50h-227v-228h-50v228h-227v50h227z" />
    <glyph glyph-name="comma" unicode="," horiz-adv-x="97" 
d="M48 101q37 0 37 -69q0 -50 -17 -88t-32.5 -52t-23.5 -14q-5 0 -5 5q0 1 2.5 4t6.5 7.5t6 7.5q19 30 26 59.5t-1 38.5q-16 2 -25.5 16t-9.5 36t10 35.5t26 13.5z" />
    <glyph glyph-name="hyphen" unicode="-" horiz-adv-x="192" 
d="M28 338h136v-42h-136v42z" />
    <glyph glyph-name="period" unicode="." horiz-adv-x="97" 
d="M48 101q19 0 28 -15t9 -36q0 -20 -9 -35t-28 -15q-18 0 -27 15t-9 35q0 21 9 36t27 15z" />
    <glyph glyph-name="slash" unicode="/" horiz-adv-x="226" 
d="M226 740l-174 -740l-52 10l174 740z" />
    <glyph glyph-name="zero" unicode="0" horiz-adv-x="307" 
d="M154 750q36 0 61.5 -28.5t39 -79t19 -106t5.5 -121.5q0 -200 -27.5 -307.5t-97.5 -107.5q-71 0 -98.5 107.5t-27.5 307.5q0 66 6 121.5t19 106t39 79t62 28.5zM154 50q15 0 24 15.5t15.5 57t9 112.5t2.5 183q0 158 -11.5 220t-39.5 62q-29 0 -40.5 -62t-11.5 -220
q0 -113 2.5 -183.5t9 -112t16 -57t24.5 -15.5z" />
    <glyph glyph-name="one" unicode="1" horiz-adv-x="192" 
d="M61 72v557q0 9 -7 12l-45 25q-5 3 -5 7q0 5 10 8q28 9 55 27.5t39 34.5q5 7 9 7h12q5 0 5 -5q0 -9 -1.5 -45.5t-1.5 -63.5v-564q0 -19 9 -28l30 -29q7 -7 7 -9q0 -6 -6 -6h-150q-6 0 -6 6q0 2 7 9l30 29q9 9 9 28z" />
    <glyph glyph-name="two" unicode="2" horiz-adv-x="268" 
d="M224 0h-202q-9 0 -2 14l20 36q-3 45 -3 54q0 86 58 192q72 130 72 295q0 61 -9.5 85t-35.5 24q-22 0 -45 -27.5t-33 -50t-14 -34.5q-3 -10 -12 -10q-8 0 -6 13q8 67 45 113t84 46t73.5 -42t26.5 -122q0 -173 -95 -325q-49 -79 -49 -147q0 -38 12 -50h76q9 0 14 14l31 82
q4 12 9 12t5 -9l-11 -154q0 -9 -9 -9z" />
    <glyph glyph-name="three" unicode="3" horiz-adv-x="277" 
d="M78 384v14q0 8 9 8q36 0 62 34.5t26 113.5q0 77 -11.5 111.5t-40.5 34.5q-22 0 -45 -27.5t-33 -50t-14 -34.5q-3 -10 -12 -10q-8 0 -6 13q8 67 45 113t84 46q48 0 77.5 -45t29.5 -126q0 -80 -26 -126.5t-61 -59.5v-2q87 -33 87 -197q0 -194 -126 -194q-40 0 -66 30.5
t-35.5 71t-9.5 88.5q0 13 6 13q11 0 11 -12q0 -39 26.5 -90t61.5 -51q30 0 44 33t14 125q0 79 -27 124t-61 45q-9 0 -9 7z" />
    <glyph glyph-name="four" unicode="4" horiz-adv-x="291" 
d="M160 72v149h-154q-6 0 -6 8q0 6 7 27l174 482q5 12 13 12h27q9 0 9 -9v-470q10 0 14 4l33 37q4 6 7 6t3 -7v-83q0 -7 -5 -7h-52v-149q0 -19 9 -28l30 -29q7 -9 7 -11q0 -4 -6 -4h-150q-6 0 -6 6q0 2 4 6l3 3l30 29q9 9 9 28zM160 271v278h-2l-90 -253q-4 -16 -4 -17
q0 -8 8 -8h88z" />
    <glyph glyph-name="five" unicode="5" horiz-adv-x="282" 
d="M95 655l-10 -191h2q29 25 56 25q48 0 78.5 -62t30.5 -157q0 -270 -122 -270q-49 0 -75.5 58t-26.5 132q0 13 6 13q11 0 11 -12q0 -37 24 -89t50 -52q31 0 45 47.5t14 168.5q0 89 -11.5 131t-39.5 42q-26 0 -75 -69q-11 -16 -19 -16q-9 0 -9 12l19 369q0 13 9 13
q13 0 27 -7q37 -16 70 -16q37 0 72 14q27 11 30 11q3 -1 2.5 -8t-7.5 -20.5t-17 -26.5q-32 -39 -78 -39q-33 0 -48 6q-8 3 -8 -7z" />
    <glyph glyph-name="six" unicode="6" horiz-adv-x="307" 
d="M154 750q38 0 63.5 -33t34.5 -73t9 -82q0 -11 -8 -11q-9 0 -9 11q0 30 -27.5 84t-62.5 54q-28 0 -40 -56.5t-12 -187.5h2q25 33 56 33q55 0 87 -56.5t32 -152.5q0 -45 -7 -91.5t-21 -90t-39 -71t-58 -27.5q-29 0 -50.5 18t-39.5 62t-27 128t-9 207q0 335 126 335zM154 50
q27 0 39 54.5t12 175.5q0 80 -11 119.5t-40 39.5q-52 0 -52 -119q0 -149 11.5 -209.5t40.5 -60.5z" />
    <glyph glyph-name="seven" unicode="7" horiz-adv-x="256" 
d="M12 563v181q0 6 5 6q1 0 15 -12q3 -2 6.5 -5.5l5.5 -5.5t4.5 -3.5t4.5 -1.5q9 0 25 13q19 15 57 15q22 0 42 -8q4 -2 9.5 -4.5t9 -4t4.5 -1.5q8 0 24 11q2 1 3.5 2.5l2.5 2.5t2.5 1.5t2.5 0.5q4 0 6 -10q3 -33 3 -54q0 -77 -48 -217q-46 -125 -46 -220q0 -63 6.5 -137
t12.5 -87q6 -15 6 -21q0 -4 -3 -4h-77q-6 0 -8 8q-11 59 -11 216q0 24 2.5 49.5t9.5 53.5l12 48t16 52.5t16.5 46.5t19.5 50t17 45q17 44 17 80q0 16 -14.5 27.5t-35.5 11.5q-72 0 -108 -123q-3 -11 -10 -11q-6 0 -6 9z" />
    <glyph glyph-name="eight" unicode="8" horiz-adv-x="304" 
d="M152 750q57 0 90.5 -56.5t33.5 -132.5q0 -109 -72 -177q72 -40 72 -179q0 -95 -32.5 -150t-91.5 -55q-60 0 -92 55t-32 150q0 140 71 179q-71 67 -71 177q0 77 33 133t91 56zM152 357q-50 0 -50 -152q0 -155 50 -155t50 155q0 72 -13.5 112t-36.5 40zM152 405q24 0 37 48
t13 112q0 135 -50 135t-50 -135q0 -65 12.5 -112.5t37.5 -47.5z" />
    <glyph glyph-name="nine" unicode="9" horiz-adv-x="307" 
d="M153 750q67 0 96.5 -83.5t29.5 -282.5q0 -194 -26 -289t-95 -95q-35 0 -58.5 19t-34.5 51t-15 60t-4 58q0 11 8 11q7 0 10 -11q23 -83 39 -107q21 -31 51 -31q32 0 41.5 61.5t9.5 182.5h-2q-25 -33 -56 -33q-55 0 -87 66t-32 175q0 65 11.5 118.5t40.5 91.5t73 38z
M153 700q-51 0 -51 -192q0 -101 11 -149t40 -48t40.5 43t11.5 124q0 116 -12 169t-40 53z" />
    <glyph glyph-name="colon" unicode=":" horiz-adv-x="97" 
d="M48 101q19 0 28 -15t9 -36q0 -20 -9 -35t-28 -15q-18 0 -27 15t-9 35q0 21 9 36t27 15zM48 479q19 0 28 -15t9 -35q0 -21 -9 -36t-28 -15q-18 0 -27 15t-9 36q0 20 9 35t27 15z" />
    <glyph glyph-name="semicolon" unicode=";" horiz-adv-x="97" 
d="M48 101q37 0 37 -69q0 -50 -17 -88t-32.5 -52t-23.5 -14q-5 0 -5 5q0 1 2.5 4t6.5 7.5t6 7.5q19 30 26 59.5t-1 38.5q-16 2 -25.5 16t-9.5 36t10 35.5t26 13.5zM48 479q19 0 28 -15t9 -35q0 -21 -9 -36t-28 -15q-18 0 -27 15t-9 36q0 20 9 35t27 15z" />
    <glyph glyph-name="less" unicode="&#x3c;" 
d="M554 47v-55l-508 234v54l508 234v-55l-446 -206z" />
    <glyph glyph-name="equal" unicode="=" 
d="M552 375v-50h-504v50h504zM552 181v-50h-504v50h504z" />
    <glyph glyph-name="greater" unicode="&#x3e;" 
d="M46 47l446 206l-446 206v55l508 -234v-54l-508 -234v55z" />
    <glyph glyph-name="question" unicode="?" horiz-adv-x="283" 
d="M148 320v-129q0 -11 -10 -11q-9 0 -11 11l-26 137q-8 40 11 63q46 56 61.5 105.5t15.5 107.5q0 38 -14.5 67t-39.5 29t-46.5 -26t-31 -51.5t-14.5 -48.5q-2 -11 -9 -11q-8 0 -8 13q0 24 6 52t19 56.5t37.5 47t56.5 18.5q57 0 84.5 -42t27.5 -108q0 -59 -19.5 -110
t-74.5 -127q-15 -21 -15 -43zM143 101q18 0 27 -15t9 -36q0 -20 -9 -35t-27 -15q-36 0 -36 50q0 51 36 51z" />
    <glyph glyph-name="at" unicode="@" horiz-adv-x="800" 
d="M519 426q0 68 -47 68q-48 0 -100.5 -60t-52.5 -153q0 -88 73 -88q36 0 76.5 64t50.5 169zM534 479l11 42h70l-70 -273q-1 -8 -3.5 -22t8.5 -28t35 -14q68 0 108.5 69.5t40.5 148.5q0 47 -21.5 97t-60 93.5t-100 71.5t-133.5 28q-136 0 -224 -99.5t-88 -269.5
q0 -119 89.5 -212t232.5 -93q105 0 208 50l14 -22q-114 -58 -221 -58q-98 0 -176.5 34t-124 87t-69.5 111t-24 114q0 166 112 272t271 106q146 0 245.5 -88.5t99.5 -220.5q0 -90 -54 -170t-141 -80q-32 0 -55 16.5t-31.5 32.5t-7.5 25h-2q-14 -21 -47.5 -44.5t-73.5 -28.5
q-10 0 -20.5 1t-26 8.5t-26.5 20.5t-19.5 39t-8.5 61q0 29 13 69t37 81.5t65.5 70.5t91.5 29q23 0 39 -10t21.5 -18t15.5 -27z" />
    <glyph glyph-name="A" unicode="A" horiz-adv-x="333" 
d="M212 62l-15 105q-2 9 -9 9h-74q-4 0 -6 -7l-15 -110q-1 -10 5 -18l22 -23q1 -2 4 -4.5t4.5 -4.5t1.5 -3q0 -6 -7 -6h-115q-6 0 -6 6q0 3 7 10l28 28q6 6 8 25l91 672q2 9 8 9h37q7 0 9 -11l95 -671q2 -19 11 -27l29 -26q6 -6 6 -9q0 -6 -7 -6h-144q-7 0 -7 6q0 2 7 9
l27 27q7 6 5 20zM120 229h63q6 0 4 7l-35 245h-2l-33 -246q-1 -6 3 -6z" />
    <glyph glyph-name="B" unicode="B" horiz-adv-x="331" 
d="M58 72v606q0 19 -9 28l-30 29l-3 3q-4 4 -4 6q0 6 6 6h125q158 0 158 -185q0 -79 -19.5 -118t-54.5 -60q76 -39 76 -173q0 -214 -128 -214h-157q-6 0 -6 6q0 2 3 4.5t4 4.5l30 29q9 9 9 28zM135 700v-294h15q38 0 54 35.5t16 123.5q0 75 -16 105t-54 30h-15zM135 356
v-306h31q33 0 43.5 34.5t10.5 136.5q0 73 -16.5 104t-53.5 31h-15z" />
    <glyph glyph-name="C" unicode="C" horiz-adv-x="292" 
d="M268 733v-238q0 -9 -6 -9t-8 11q-11 80 -34.5 141.5t-57.5 61.5q-31 0 -41.5 -68.5t-10.5 -237.5q0 -146 8 -222.5t21 -99t38 -22.5t43.5 48.5t25.5 90.5t7 54q0 8 8 8q7 0 7 -9q0 -120 -24 -181t-86 -61q-130 0 -130 395q0 49 1.5 85.5t8.5 91t20 90t38.5 62t61.5 26.5
q22 0 48 -21q7 -6 17 -6q9 0 19 12q13 15 19 15q7 0 7 -17z" />
    <glyph glyph-name="D" unicode="D" horiz-adv-x="339" 
d="M58 72v606q0 19 -9 28l-30 29l-3 3q-4 4 -4 6q0 6 6 6h132q79 0 120 -84t41 -272q0 -120 -10.5 -199t-32.5 -121t-49.5 -58t-68.5 -16h-132q-6 0 -6 6q0 2 3 4.5t4 4.5l30 29q9 9 9 28zM135 700v-650h18q13 0 23 6t20.5 27t17 57.5t11 100.5t4.5 153q0 78 -4.5 134.5
t-11 89t-17 51.5t-20.5 25t-23 6h-18z" />
    <glyph glyph-name="E" unicode="E" horiz-adv-x="309" 
d="M135 700v-293h22q8 0 11 7l35 70q3 6 6 6q4 0 4 -6v-212q0 -5 -4 -5q-3 0 -7 7l-34 73q-3 7 -11 7h-22v-304h57q21 0 27 18l54 192q1 6 7 6q5 0 5 -6v-251q0 -9 -8 -9h-259q-6 0 -6 6q0 2 3 4.5t4 4.5l30 29q9 9 9 28v606q0 19 -9 28l-30 29l-3 3q-4 4 -4 6q0 6 6 6h259
q8 0 8 -9v-249q0 -6 -5 -6q-6 0 -8 7l-54 188q-6 19 -26 19h-57z" />
    <glyph glyph-name="F" unicode="F" horiz-adv-x="309" 
d="M135 700v-293h22q8 0 11 7l33 69q3 7 7 7q5 0 5 -6v-211q0 -6 -4 -6q-3 0 -6 7l-35 73q-3 7 -11 7h-22v-282q0 -21 9 -28l37 -29q7 -7 7 -9q0 -6 -6 -6h-164q-6 0 -6 6q0 2 3 4.5t4 4.5l30 29q9 9 9 28v606q0 19 -9 28l-30 29l-3 3q-4 4 -4 6q0 6 6 6h259q8 0 8 -9v-250
q0 -5 -5 -5q-6 0 -8 7l-54 188q-6 19 -26 19h-57z" />
    <glyph glyph-name="G" unicode="G" horiz-adv-x="330" 
d="M211 183v136q0 13 -11 22l-28 24q-5 5 -5 10q0 6 8 6h148q7 0 7 -6q0 -3 -5 -10l-29 -24q-10 -7 -10 -22v-314q0 -5 -5 -5q-6 0 -10 4l-30 27q-5 4 -10 4t-10 -4q-34 -31 -63 -31q-26 0 -46.5 14t-34 34.5t-23 55t-14.5 65.5t-8 75.5t-3.5 75.5t-0.5 75q0 49 1.5 85.5
t8.5 91t19.5 90t38 62t60.5 26.5q34 0 63 -23q8 -6 15 -6t25 16q15 13 20 13q7 0 7 -17v-240q0 -7 -5 -7q-6 0 -9 10q-57 204 -108 204q-31 0 -42.5 -71t-11.5 -235q0 -109 2.5 -175.5t8.5 -104.5t14.5 -51t22.5 -13q53 0 53 133z" />
    <glyph glyph-name="H" unicode="H" horiz-adv-x="372" 
d="M135 408h102v270q0 19 -9 28l-30 29l-3 3q-4 4 -4 6q0 6 6 6h157q6 0 6 -6q0 -2 -4 -6l-3 -3l-30 -29q-9 -9 -9 -28v-606q0 -19 9 -28l30 -29l3 -3q4 -4 4 -6q0 -6 -6 -6h-157q-6 0 -6 6q0 2 4 6l3 3l30 29q9 9 9 28v283h-102v-283q0 -19 9 -28l30 -29l3 -3q4 -4 4 -6
q0 -6 -6 -6h-157q-6 0 -6 6q0 2 4 6l3 3l30 29q9 9 9 28v606q0 19 -9 28l-30 29l-3 3q-4 4 -4 6q0 6 6 6h157q6 0 6 -6q0 -2 -4 -6l-3 -3l-30 -29q-9 -9 -9 -28v-270z" />
    <glyph glyph-name="I" unicode="I" horiz-adv-x="193" 
d="M58 72v606q0 19 -9 28l-30 29l-3 3q-4 4 -4 6q0 6 6 6h157q6 0 6 -6q0 -2 -4 -6l-3 -3l-30 -29q-9 -9 -9 -28v-606q0 -19 9 -28l30 -29l3 -3q4 -4 4 -6q0 -6 -6 -6h-157q-6 0 -6 6q0 2 4 6l3 3l30 29q9 9 9 28z" />
    <glyph glyph-name="J" unicode="J" horiz-adv-x="274" 
d="M131 706l-30 29q-7 7 -7 9q0 6 6 6h156q6 0 6 -6q0 -2 -7 -9l-30 -29q-9 -9 -9 -28v-514q0 -99 -29.5 -131.5t-80.5 -32.5q-106 0 -106 208q0 12 8 12t10 -10q22 -160 75 -160q46 0 46 72v556q0 20 -8 28z" />
    <glyph glyph-name="K" unicode="K" horiz-adv-x="355" 
d="M58 72v606q0 20 -9 28l-30 28q-7 5 -7 11q0 5 5 5h159q5 0 5 -5t-6 -11l-31 -28q-9 -9 -9 -28v-291h2l98 294q6 17 -6 27l-31 26q-7 7 -7 11q0 5 7 5h146q7 0 7 -5q0 -4 -8 -12l-34 -34q-13 -13 -22 -41l-77 -232l87 -352q5 -18 13 -24l34 -33q7 -7 7 -12t-5 -5h-149
q-6 0 -6 5q0 1 8 11l26 35q8 11 3 27l-56 229h-2l-35 -107v-128q0 -19 9 -28l31 -28q6 -6 6 -11t-5 -5h-159q-5 0 -5 5t6 11l31 28q9 9 9 28z" />
    <glyph glyph-name="L" unicode="L" horiz-adv-x="298" 
d="M58 72v606q0 19 -9 28l-30 29l-3 3q-4 4 -4 6q0 6 6 6h157q6 0 6 -6q0 -2 -4 -6l-3 -3l-30 -29q-9 -9 -9 -28v-628h40q21 0 26 15l62 194q3 7 6 7q5 0 5 -7v-245q0 -14 -11 -14h-245q-6 0 -6 6q0 2 3 4.5t4 4.5l30 29q9 9 9 28z" />
    <glyph glyph-name="M" unicode="M" horiz-adv-x="437" 
d="M18 750h122q12 0 14 -17l66 -433h2l61 433q2 17 11 17h125q6 0 6 -5q0 -3 -7 -10l-25 -29q-8 -11 -8 -28v-606q0 -17 8 -28l25 -29q7 -7 7 -10q0 -5 -6 -5h-140q-6 0 -6 5q0 2 7 11l21 27q7 9 7 29v484h-2l-76 -548q-2 -8 -8 -8h-22q-3 0 -5 9l-81 547h-2v-484
q0 -20 7 -29l21 -27q7 -9 7 -11q0 -5 -6 -5h-123q-6 0 -6 5q0 2 1.5 3.5t3 3.5t2.5 3l25 29q9 12 9 28v606q0 16 -9 28l-25 29q-1 1 -2.5 3t-3 3.5t-1.5 3.5q0 5 6 5z" />
    <glyph glyph-name="N" unicode="N" horiz-adv-x="356" 
d="M53 72v606q0 16 -9 28l-25 29q-1 1 -2.5 3t-3 3.5t-1.5 3.5q0 5 6 5h120q9 0 12 -17l92 -430h2v375q0 18 -9 27l-28 30q-1 1 -2.5 3t-3 3.5t-1.5 3.5q0 5 6 5h132q6 0 6 -5q0 -3 -7 -10l-25 -29q-9 -12 -9 -28v-667q0 -11 -10 -11h-42q-15 0 -20 25l-117 545h-2v-498
q0 -17 10 -27l27 -30q7 -7 7 -10q0 -5 -6 -5h-132q-6 0 -6 5q0 2 1.5 3.5t3 3.5t2.5 3l25 29q9 12 9 28z" />
    <glyph glyph-name="O" unicode="O" horiz-adv-x="323" 
d="M161 750q134 0 134 -355q0 -65 -2 -114.5t-10 -105.5t-22 -91.5t-39.5 -59.5t-60.5 -24t-60 24t-39 59.5t-22 91.5t-10 105.5t-2 114.5q0 355 133 355zM161 700q-51 0 -51 -306q0 -344 51 -344q52 0 52 344q0 306 -52 306z" />
    <glyph glyph-name="P" unicode="P" horiz-adv-x="325" 
d="M58 72v606q0 19 -9 28l-30 29l-3 3q-4 4 -4 6q0 6 6 6h151q64 0 98 -43t34 -151q0 -99 -33 -153t-99 -54h-34v-277q0 -21 9 -28l37 -29q7 -7 7 -9q0 -6 -6 -6h-164q-6 0 -6 6q0 2 3 4.5t4 4.5l30 29q9 9 9 28zM135 700v-301h29q31 0 43 36t12 121q0 83 -11.5 113.5
t-43.5 30.5h-29z" />
    <glyph glyph-name="Q" unicode="Q" horiz-adv-x="336" 
d="M161 700q-51 0 -51 -306q0 -135 10 -247q18 18 37 18q26 0 43 -21q13 83 13 250q0 306 -52 306zM161 750q134 0 134 -355q0 -231 -38 -319q7 -12 29 -12q12 0 24.5 19t15.5 39q1 4 5.5 4t4.5 -4q0 -49 -18.5 -85.5t-48.5 -36.5q-28 0 -52 19q-22 -19 -56 -19
q-35 0 -60 24t-39 59.5t-22 91.5t-10 105.5t-2 114.5q0 355 133 355zM161 50q13 0 23 26q-10 48 -35 48q-8 0 -14 -6.5t-6 -16.5q0 -19 11 -35t21 -16z" />
    <glyph glyph-name="R" unicode="R" horiz-adv-x="340" 
d="M135 356v-284q0 -19 9 -28l30 -29l3 -3q4 -4 4 -6q0 -6 -6 -6h-157q-6 0 -6 6q0 2 4 6l3 3l30 29q9 9 9 28v606q0 19 -9 28l-30 29l-3 3q-4 4 -4 6q0 6 6 6h125q79 0 118.5 -44.5t39.5 -140.5q0 -131 -74 -178q28 -15 46 -44t18 -68v-209q0 -9 9 -18l32 -34q8 -8 8 -11
t-10 -3h-52q-32 0 -48 18t-16 46v215q0 33 -18 55t-44 22h-17zM135 700v-294h15q37 0 53 35t16 124q0 75 -16 105t-53 30h-15z" />
    <glyph glyph-name="S" unicode="S" horiz-adv-x="278" 
d="M238 739v-248q0 -5 -6 -5q-4 0 -6 7q-14 71 -46 139t-64 68q-17 0 -22 -11.5t-5 -35.5q0 -39 17 -91t70 -164q51 -109 64.5 -154t13.5 -106q0 -72 -28.5 -105t-63.5 -33q-28 0 -56 19q-16 10 -20 10q-3 0 -32 -22q-9 -7 -12 -7q-5 0 -5 5v252q0 7 5 7q4 0 6 -7
q9 -40 17 -68t21.5 -64t31 -55.5t38.5 -19.5q29 0 29 52q0 47 -20 104t-67 156q-74 156 -74 263q0 125 92 125q27 0 56 -23q10 -6 15 -6q7 0 23 16q15 13 21 13q7 0 7 -11z" />
    <glyph glyph-name="T" unicode="T" horiz-adv-x="327" 
d="M125 72v630h-37q-7 0 -11 -11l-52 -199q-1 -6 -8 -6q-5 0 -5 7v253q0 4 5 4h293q5 0 5 -4v-253q0 -7 -5 -7q-6 0 -8 6l-52 199q-4 11 -11 11h-37v-630q0 -20 8 -28l30 -29q7 -7 7 -9q0 -6 -6 -6h-155q-6 0 -6 6q0 2 7 9l30 29q8 8 8 28z" />
    <glyph glyph-name="U" unicode="U" horiz-adv-x="332" 
d="M48 108v570q0 20 -8 28l-31 29q-5 5 -5 9q0 6 6 6h153q6 0 6 -6q0 -4 -5 -9l-31 -29q-8 -10 -8 -28v-544q0 -41 9.5 -62.5t41.5 -21.5q47 0 47 84v544q0 20 -8 28l-31 29q-5 5 -5 9q0 6 6 6h137q6 0 6 -6q0 -4 -5 -9l-31 -29q-8 -10 -8 -28v-570q0 -47 -32.5 -77.5
t-83.5 -30.5q-57 0 -88.5 30t-31.5 78z" />
    <glyph glyph-name="V" unicode="V" horiz-adv-x="338" 
d="M151 8l-96 667q-3 17 -12 26l-33 33q-6 6 -6 12q0 4 9 4h155q6 0 6 -4q0 -6 -5 -11l-26 -24q-14 -12 -12 -27l51 -351h2l42 351q2 14 -12 27l-24 24q-6 6 -6 11q0 4 7 4h134q9 0 9 -4q0 -6 -6 -12l-33 -33q-11 -11 -12 -26l-79 -664q-2 -11 -10 -11h-35q-6 0 -8 8z" />
    <glyph glyph-name="W" unicode="W" horiz-adv-x="472" 
d="M12 750h143q8 0 8 -4q0 -5 -5 -10l-26 -29q-7 -8 -5 -20l46 -354h2l40 354q2 11 -5 18l-31 31q-6 6 -6 10t8 4h127q7 0 7 -4q0 -5 -6 -11l-32 -32q-4 -6 -3 -17l49 -353h2l39 354q2 13 -3 18l-31 31q-5 5 -5 10q0 4 9 4h127q7 0 7 -4q0 -5 -4 -9l-34 -36q-7 -9 -9 -23
l-74 -672q0 -6 -8 -6h-29q-6 0 -8 6l-65 470h-2l-53 -470q0 -6 -8 -6h-29q-7 0 -8 6l-88 672q-1 12 -11 23l-27 33q-7 9 -7 12q0 4 8 4z" />
    <glyph glyph-name="X" unicode="X" horiz-adv-x="357" 
d="M143 362l-86 316q-3 12 -12 23l-33 34q-6 8 -6 11q0 4 8 4h158q7 0 7 -4q0 -5 -5 -10l-31 -27q-14 -12 -11 -23l50 -187h2l56 187q3 11 -12 23l-33 27q-6 4 -6 10q0 4 9 4h145q8 0 8 -4q0 -5 -6 -11l-34 -34q-7 -7 -11 -23l-87 -291l82 -304q4 -15 14 -27l34 -37
q10 -10 10 -15q0 -4 -8 -4h-160q-7 0 -7 5t9 14l31 33q6 8 3 20l-48 179h-2l-48 -176q-5 -15 3 -23l33 -33q9 -9 9 -14t-7 -5h-149q-8 0 -8 4q0 5 9 16l33 34q12 14 16 29z" />
    <glyph glyph-name="Y" unicode="Y" horiz-adv-x="325" 
d="M123 72v239l-74 367q-1 12 -11 23l-28 34q-6 9 -6 11q0 4 7 4h143q8 0 8 -5t-7 -10l-31 -29q-6 -6 -3 -19l45 -221h2l47 221q3 13 -4 19l-32 29q-7 5 -7 10t9 5h132q8 0 8 -4t-7 -11l-33 -34q-7 -8 -10 -23l-71 -336v-270q0 -19 9 -28l30 -29l3 -3q4 -4 4 -6q0 -6 -6 -6
h-157q-6 0 -6 6q0 2 4 6l3 3l30 29q9 9 9 28z" />
    <glyph glyph-name="Z" unicode="Z" horiz-adv-x="313" 
d="M30 497v247q0 6 8 6h241q6 0 6 -6l-2 -10l-176 -684h78q19 0 23 12l65 191q6 13 10 13q6 0 6 -13v-245q0 -8 -9 -8h-252q-4 0 -4 4q0 7 1 12l177 686h-72q-13 0 -19 -13l-62 -189q-6 -15 -11 -15q-8 0 -8 12z" />
    <glyph glyph-name="bracketleft" unicode="[" horiz-adv-x="170" 
d="M106 698v-646l54 -55v-4h-124v764h124v-4z" />
    <glyph glyph-name="backslash" unicode="\" horiz-adv-x="278" 
d="M-74 735h55l371 -735h-55z" />
    <glyph glyph-name="bracketright" unicode="]" horiz-adv-x="170" 
d="M64 52v646l-54 55v4h124v-764h-124v4z" />
    <glyph glyph-name="asciicircum" unicode="^" 
d="M148 335h-55l184 365h46l184 -365h-55l-152 301z" />
    <glyph glyph-name="underscore" unicode="_" horiz-adv-x="500" 
d="M0 -75h500v-50h-500v50z" />
    <glyph glyph-name="grave" unicode="`" horiz-adv-x="209" 
d="M181 652l-6 -10l-136 51q-14 5 -10 11l23 43q5 6 17 -4z" />
    <glyph glyph-name="a" unicode="a" horiz-adv-x="291" 
d="M241 431v-363q0 -25 13 -25q18 0 29 17q4 4 5 4q3 0 3 -5q-3 -23 -18.5 -41t-33.5 -18q-34 0 -59 38q-34 -38 -69 -38q-87 0 -87 162q0 84 22 124t105 106q14 11 17 22t3 44t-9 44t-33 11q-20 0 -47 -13t-42 -28q-3 -3 -8 -3q-3 0 -3 5q0 14 38 48t75 34t68 -28.5
t31 -96.5zM171 102v262h-2q-42 -36 -56.5 -72.5t-14.5 -111.5q0 -56 4 -86.5t10.5 -40.5t18.5 -10q16 0 28 18.5t12 40.5z" />
    <glyph glyph-name="b" unicode="b" horiz-adv-x="297" 
d="M42 5v703q0 5 -4 8l-29 23q-4 3 -4 7t6 4h95q6 0 6 -6v-223h2q31 35 66 35q19 0 33 -8t28.5 -32t22 -76.5t7.5 -132.5q0 -81 -5.5 -139.5t-13.5 -90.5t-20.5 -50t-24 -22.5t-26.5 -4.5q-42 0 -78 38h-2l-46 -34q-6 -4 -9 -4q-4 0 -4 5zM112 438v-327q0 -30 13 -49t32 -19
q11 0 17 7.5t10.5 34.5t6.5 80t2 142q0 90 -4.5 135.5t-11.5 58t-21 12.5q-13 0 -28.5 -21t-15.5 -54z" />
    <glyph glyph-name="c" unicode="c" horiz-adv-x="250" 
d="M26 300q0 124 31 190t87 66q66 0 86 -101q2 -8 -3 -8q-3 0 -6 5q-22 33 -37.5 47t-34.5 14q-26 0 -35.5 -43t-9.5 -170q0 -101 6 -158t16.5 -78t27.5 -21q36 0 66 53q5 8 9 8q5 0 3 -7q-25 -97 -88 -97q-60 0 -89 72t-29 228z" />
    <glyph glyph-name="d" unicode="d" horiz-adv-x="297" 
d="M185 521v181q0 5 -4 8l-29 29q-5 3 -5 7t7 4h95q6 0 6 -6v-689q0 -7 1 -9l31 -35q5 -3 5 -7t-7 -4h-93q-7 0 -7 4v34h-2q-32 -38 -67 -38q-15 0 -26.5 4.5t-24 22.5t-20.5 50t-13.5 90.5t-5.5 139.5q0 79 8 132t22.5 76.5t28.5 32t32 8.5q35 0 66 -35h2zM185 123v315
q0 33 -15.5 54t-28.5 21q-14 0 -21 -12.5t-11.5 -58t-4.5 -135.5t2 -143t6.5 -79.5t10.5 -34t17 -7.5q19 0 32 22t13 58z" />
    <glyph glyph-name="e" unicode="e" horiz-adv-x="274" 
d="M104 294v-77q0 -95 14.5 -134.5t48.5 -39.5q23 0 38 11t32 36q3 5 7 5t3 -6q-10 -39 -33.5 -64t-58.5 -25q-68 0 -98.5 73t-30.5 241q0 113 30.5 177.5t83.5 64.5q108 0 108 -188v-62q0 -12 -9 -12h-135zM104 332h74v100q0 81 -38 81q-36 0 -36 -81v-100z" />
    <glyph glyph-name="f" unicode="f" horiz-adv-x="164" 
d="M112 495v-440q0 -7 1 -9l37 -35q4 -4 4 -7q0 -4 -6 -4h-137q-6 0 -6 4t4 7l31 35q2 2 2 9v440q0 7 -9 18l-30 31q-3 2 -4 5t0.5 5t3.5 2h31q8 0 8 9v84q0 49 25 75t63 26q33 0 55 -27t22 -58q0 -6 -4 -6t-10 8q-30 40 -56 40q-25 0 -25 -42v-100q0 -9 8 -9h30q2 0 3.5 -2
t0.5 -5t-4 -5l-30 -31q-8 -10 -8 -18z" />
    <glyph glyph-name="g" unicode="g" horiz-adv-x="297" 
d="M255 551v-434q0 -77 -8 -127.5t-24.5 -76.5t-35.5 -35.5t-47 -9.5q-48 0 -76.5 33.5t-28.5 54.5q0 7 4 7q3 0 9 -8q34 -44 79 -44q29 0 43.5 28.5t14.5 98.5h-2q-29 -38 -67 -38q-15 0 -26.5 4.5t-24 22.5t-20.5 50t-13.5 90.5t-5.5 139.5q0 80 7.5 132.5t22.5 76.5
t29.5 32t35.5 8q41 0 69 -38h2l48 33q5 5 10 5t5 -5zM185 123v296q0 44 -14.5 69t-32.5 25q-13 0 -19.5 -13t-10.5 -58t-4 -135t2 -143t6.5 -79.5t10.5 -34t17 -7.5q19 0 32 22t13 58z" />
    <glyph glyph-name="h" unicode="h" horiz-adv-x="308" 
d="M112 744v-223h2q33 35 69 35q38 0 60.5 -26.5t22.5 -75.5v-399q0 -7 2 -9l31 -35q4 -4 4 -7q0 -4 -6 -4h-132q-6 0 -6 4q0 3 4 7l31 35q2 2 2 9v400q0 58 -34 58q-19 0 -34.5 -24.5t-15.5 -62.5v-371q0 -7 1 -9l31 -35q5 -3 5 -7t-6 -4h-132q-6 0 -6 4t4 7l31 35q2 2 2 9
v647q0 5 -4 8l-29 29q-4 3 -4 7t6 4h95q6 0 6 -6z" />
    <glyph glyph-name="i" unicode="i" horiz-adv-x="154" 
d="M42 55v453q0 5 -3 8l-30 28q-4 6 -4 8q0 4 6 4h96q5 0 5 -6v-495q0 -7 2 -9l31 -35q4 -4 4 -7q0 -4 -6 -4h-132q-6 0 -6 4q0 3 4 7l31 35q2 2 2 9zM76 750q15 0 25.5 -16t10.5 -37q0 -20 -10.5 -36.5t-25.5 -16.5t-26 16.5t-11 36.5q0 21 11 37t26 16z" />
    <glyph glyph-name="j" unicode="j" horiz-adv-x="154" 
d="M11 556h96q5 0 5 -6v-533q0 -71 -24.5 -110t-63.5 -39q-35 0 -52.5 24.5t-17.5 58.5q0 7 4 7t6 -6q13 -40 43 -40q20 0 27.5 19.5t7.5 79.5v497q0 5 -3 8l-30 28q-4 6 -4 8q0 4 6 4zM76 750q15 0 25.5 -16t10.5 -37q0 -20 -10.5 -36.5t-25.5 -16.5t-26 16.5t-11 36.5
q0 21 11 37t26 16z" />
    <glyph glyph-name="k" unicode="k" horiz-adv-x="300" 
d="M112 744v-414h2l68 171q6 12 -3 23l-19 25l-2 4q0 3 5 3h103q4 0 4 -4q0 -3 -5 -8l-18 -17q-5 -6 -12 -22l-70 -175l91 -270q4 -14 11 -20l28 -27q5 -3 5 -8t-5 -5h-111q-4 0 -4 4q0 2 4 8l11 15q4 9 1 17l-67 199l-17 -43v-158q0 -5 4 -8l24 -23q4 -4 4 -7q0 -4 -6 -4
h-127q-6 0 -6 4t4 7l29 23q4 3 4 8v666q0 5 -4 8l-29 23q-4 3 -4 7t6 4h96q5 0 5 -6z" />
    <glyph glyph-name="l" unicode="l" horiz-adv-x="154" 
d="M112 744v-689q0 -7 2 -9l31 -35q4 -4 4 -7q0 -4 -6 -4h-132q-6 0 -6 4q0 3 4 7l31 35q2 2 2 9v647q0 5 -3 8l-30 29q-4 4 -4 7q0 4 6 4h96q5 0 5 -6z" />
    <glyph glyph-name="m" unicode="m" horiz-adv-x="444" 
d="M42 55v453q0 5 -3 8l-30 28q-4 6 -4 8q0 4 6 4h96q5 0 5 -6v-29h2q33 35 69 35q40 0 64 -35q33 35 76 35q35 0 57 -26.5t22 -75.5v-399q0 -7 2 -9l31 -35q4 -3 4 -7t-6 -4h-132q-6 0 -6 4t5 7l30 35q2 2 2 9v400q0 58 -28 58q-17 0 -32 -24.5t-15 -62.5v-371q0 -7 2 -9
l24 -35q3 -3 3 -7t-6 -4h-116q-6 0 -6 4q0 3 4 7l23 35q2 2 2 9v400q0 58 -28 58q-18 0 -32.5 -24.5t-14.5 -62.5v-371q0 -7 2 -9l31 -35q4 -4 4 -7q0 -4 -6 -4h-132q-6 0 -6 4q0 3 4 7l31 35q2 2 2 9z" />
    <glyph glyph-name="n" unicode="n" horiz-adv-x="308" 
d="M112 550v-29h2q33 35 69 35q38 0 60.5 -26.5t22.5 -75.5v-399q0 -7 2 -9l31 -35q4 -4 4 -7q0 -4 -6 -4h-132q-6 0 -6 4q0 3 4 7l31 35q2 2 2 9v400q0 58 -34 58q-19 0 -34.5 -24.5t-15.5 -62.5v-371q0 -7 1 -9l31 -35q5 -3 5 -7t-6 -4h-132q-6 0 -6 4t4 7l31 35q2 2 2 9
v453q0 5 -3 8l-30 28q-4 6 -4 8q0 4 6 4h96q5 0 5 -6z" />
    <glyph glyph-name="o" unicode="o" horiz-adv-x="289" 
d="M144 556q119 0 119 -254q0 -171 -31.5 -236.5t-87.5 -65.5q-35 0 -59.5 22.5t-41.5 92.5t-17 187q0 254 118 254zM144 43q15 0 23 17t13 75t5 167q0 85 -5 132t-13.5 63t-22.5 16t-22 -16t-13 -63t-5 -132q0 -109 5 -167t13 -75t22 -17z" />
    <glyph glyph-name="p" unicode="p" horiz-adv-x="297" 
d="M42 -78v592q0 6 -4 7l-29 23q-4 4 -4 8t6 4h96q5 0 5 -6v-29h2q31 35 66 35q19 0 33 -8t28.5 -32t22 -76.5t7.5 -132.5q-1 -81 -6.5 -139.5t-13.5 -90.5t-21 -50t-24.5 -22.5t-26.5 -4.5q-37 0 -65 38h-2v-116q0 -7 1 -8l31 -35q5 -5 5 -8t-6 -3h-132q-6 0 -6 3q0 4 4 8
l31 35q2 1 2 8zM112 438v-321q0 -30 15.5 -52t33.5 -22q12 0 18 15t10 73t4 176q0 90 -4.5 135.5t-11.5 58t-21 12.5q-13 0 -28.5 -21t-15.5 -54z" />
    <glyph glyph-name="q" unicode="q" horiz-adv-x="299" 
d="M187 -78v116h-2q-34 -38 -69 -38q-15 0 -26.5 4.5t-24 22.5t-20.5 50t-13.5 90.5t-5.5 139.5q0 65 5.5 112t14 73t22.5 41t26 19t29 4q36 0 73 -35h2l44 30q5 5 10 5t5 -5v-629q0 -7 1 -8l31 -35q5 -5 5 -8t-7 -3h-130q-7 0 -7 3t5 8l31 35q1 1 1 8zM187 123v296
q0 44 -12.5 69t-31.5 25q-15 0 -22.5 -14t-12 -59t-4.5 -133q0 -117 4.5 -175.5t11 -73.5t19.5 -15q18 0 33 24t15 56z" />
    <glyph glyph-name="r" unicode="r" horiz-adv-x="222" 
d="M112 417v-362q0 -7 1 -9l34 -35q4 -3 4 -7t-6 -4h-134q-6 0 -6 4t4 7l31 35q2 2 2 9v453q0 5 -4 8l-29 28q-4 4 -4 8t6 4h96q5 0 5 -6v-34h2q32 40 56 40q23 0 38.5 -28.5t15.5 -56.5q0 -9 -5 -9q-4 0 -8 9q-15 38 -52 38q-21 0 -34 -26.5t-13 -65.5z" />
    <glyph glyph-name="s" unicode="s" horiz-adv-x="240" 
d="M201 546v-188q0 -8 -6 -8q-4 0 -6 9q-11 55 -30 104q-20 50 -46 50q-25 0 -25 -54q0 -65 61 -163q65 -104 65 -196q0 -44 -26 -72t-60 -28q-35 0 -60 32l-26 -27q-8 -5 -10 -5q-3 0 -3 7v192q0 7 4 7t6 -9q30 -154 76 -154q32 0 32 43q0 76 -64 180q-57 95 -57 183
q0 46 23.5 76.5t52.5 30.5q32 0 59 -32l29 26q6 6 7 6q4 0 4 -10z" />
    <glyph glyph-name="t" unicode="t" horiz-adv-x="176" 
d="M112 506v-427q0 -16 7 -26t17 -10q18 0 31 21q4 4 6 4q5 0 3 -6q-16 -62 -69 -62q-34 0 -49.5 21.5t-15.5 79.5v405q0 10 -3 13l-29 28q-5 5 -5 6q0 6 14 7q49 9 49 124q0 9 8 9h30q6 0 6 -7v-115q0 -9 8 -9h23q2 0 3.5 -2t0.5 -5t-4 -5l-23 -26q-8 -13 -8 -18z" />
    <glyph glyph-name="u" unicode="u" horiz-adv-x="308" 
d="M266 550v-495q0 -7 1 -9l31 -35q5 -3 5 -7t-7 -4h-93q-7 0 -7 4v34h-2q-32 -38 -67 -38q-85 0 -85 102v406q0 5 -3 8l-30 28q-4 6 -4 8q0 4 6 4h96q5 0 5 -6v-449q0 -58 39 -58q19 0 32 22t13 58v385q0 5 -3 8l-29 28q-5 5 -5 8q0 4 6 4h96q5 0 5 -6z" />
    <glyph glyph-name="v" unicode="v" horiz-adv-x="263" 
d="M222 502l-62 -484q-2 -18 -11 -18h-28q-9 0 -12 15l-72 487q-2 12 -8 18l-21 24q-4 6 -4 8q0 4 6 4h115q6 0 6 -3q0 -4 -4 -8l-25 -29q-6 -6 -4 -16l41 -278h2l36 278q2 10 -4 16l-26 29q-4 6 -4 8q0 3 6 3h104q6 0 6 -4q0 -3 -5 -8l-24 -24q-6 -6 -8 -18z" />
    <glyph glyph-name="w" unicode="w" horiz-adv-x="385" 
d="M109 11l-72 491q-2 12 -8 18l-21 24q-4 6 -4 8q0 4 6 4h113q6 0 6 -4q0 -2 -4 -8l-21 -24q-7 -11 -6 -19l41 -279h2l35 265q1 13 -10 28l-21 29q-4 6 -4 8q0 4 6 4h105q7 0 7 -4q0 -1 -2 -4t-2 -4l-24 -30q-11 -15 -10 -27l40 -265h2l36 284q1 9 -3 15l-21 23q0 1 -2 4
t-2 4q0 4 7 4h97q6 0 6 -4q0 -2 -4 -8l-24 -25q-7 -7 -10 -25l-61 -480q-2 -14 -11 -14h-20q-7 0 -10 11l-48 316h-2l-41 -313q-2 -14 -8 -14h-21q-10 0 -12 11z" />
    <glyph glyph-name="x" unicode="x" horiz-adv-x="293" 
d="M56 74l62 197l-65 229q-4 12 -7 15l-30 29q-4 4 -4 8t6 4h127q6 0 6 -4t-4 -8l-24 -28q-6 -6 -2 -20l32 -116h2l36 122q3 9 -2 14l-24 28q-4 6 -4 8q0 4 7 4h102q6 0 6 -4t-4 -8l-25 -25q-10 -10 -12 -18l-62 -187l74 -260q2 -6 12 -16l25 -25q5 -3 5 -9q0 -4 -6 -4h-128
q-7 0 -7 4q0 3 4 7l20 27q10 14 4 31l-36 130h-2l-41 -132q-5 -17 8 -28l29 -28q4 -4 4 -7q0 -4 -7 -4h-120q-7 0 -7 4q0 3 4 7l34 35q8 8 14 28z" />
    <glyph glyph-name="y" unicode="y" horiz-adv-x="259" 
d="M10 556h111q6 0 6 -4t-3 -8l-19 -25q-5 -9 -4 -19l36 -290h2l29 290q2 12 -5 19l-22 25q-4 4 -4 8t6 4h106q6 0 6 -4q0 -5 -4 -8l-25 -24q-6 -6 -8 -18l-67 -541q-6 -46 -24 -69.5t-43 -23.5q-33 0 -52 32.5t-19 62.5q0 7 4 7q5 0 8 -7q9 -18 14 -27t14 -17t19 -8
q32 0 32 57q0 36 -7 88l-60 446q-2 10 -7 15l-22 27q-4 6 -4 8q0 4 6 4z" />
    <glyph glyph-name="z" unicode="z" horiz-adv-x="263" 
d="M29 368v180q0 8 9 8h184q5 0 5 -5q0 -4 -1 -7l-120 -510h53q16 0 20 13l47 141q2 10 7 10q4 0 4 -10v-181q0 -7 -8 -7h-200q-3 0 -3 4v7l129 511h-48q-13 0 -19 -14l-46 -137q-3 -11 -8 -11t-5 8z" />
    <glyph glyph-name="braceleft" unicode="{" horiz-adv-x="208" 
d="M69 596q-19 129 121 161q7 1 8.5 -5.5t-4.5 -8.5q-50 -19 -57.5 -56t7.5 -113q23 -170 -41 -199q64 -29 41 -199q-15 -76 -7.5 -113t57.5 -56q6 -2 4.5 -8.5t-8.5 -5.5q-140 32 -121 161q4 28 4.5 55t-0.5 58.5t-1 41.5q0 55 -32 62q-4 1 -4 4t4 5q32 7 32 61
q0 10 1 41.5t0.5 58.5t-4.5 55z" />
    <glyph glyph-name="bar" unicode="|" horiz-adv-x="222" 
d="M86 -250v1000h50v-1000h-50z" />
    <glyph glyph-name="braceright" unicode="}" horiz-adv-x="208" 
d="M139 596q-4 -28 -4.5 -55t0.5 -58.5t1 -41.5q0 -54 32 -61q4 -2 4 -5t-4 -4q-32 -7 -32 -62q0 -10 -1 -41.5t-0.5 -58.5t4.5 -55q19 -129 -121 -161q-7 -1 -8.5 5.5t4.5 8.5q50 19 57.5 56t-7.5 113q-23 170 41 199q-64 29 -41 199q15 76 7.5 113t-57.5 56q-6 2 -4.5 8.5
t8.5 5.5q140 -32 121 -161z" />
    <glyph glyph-name="asciitilde" unicode="~" 
d="M495 316l36 -36q-20 -27 -33 -42t-38 -29.5t-54 -14.5q-42 0 -102 33q-62 35 -115 35q-51 0 -84 -72l-36 36q45 86 125 86q39 0 111 -32q7 -3 21.5 -9.5t23 -10t20 -8t20.5 -6.5t17 -2q19 0 36.5 12t27 24.5t24.5 35.5z" />
    <glyph glyph-name="uni00A0" unicode="&#xa0;" horiz-adv-x="120" 
 />
    <glyph glyph-name="exclamdown" unicode="&#xa1;" horiz-adv-x="146" 
d="M84 554l30 -491q5 -63 -41 -63t-41 63l30 491q2 16 11 16t11 -16zM73 750q36 0 36 -50q0 -51 -36 -51q-18 0 -27 15t-9 36q0 20 9 35t27 15z" />
    <glyph glyph-name="cent" unicode="&#xa2;" horiz-adv-x="307" 
d="M142 128v437q-11 -2 -20.5 -20.5t-16.5 -67t-7 -119.5q0 -109 12.5 -168t31.5 -62zM138 668h50l-4 -57q37 -5 64.5 -52.5t27.5 -113.5q0 -10 -8 -10q-9 0 -9 10q0 37 -22.5 78t-52.5 46v-445q30 5 52.5 47t22.5 77q0 10 9 10q8 0 8 -10q0 -66 -27.5 -113.5t-64.5 -52.5
l4 -50h-50l4 50q-47 5 -79 78.5t-32 197.5q0 126 35 186.5t76 66.5z" />
    <glyph glyph-name="sterling" unicode="&#xa3;" horiz-adv-x="279" 
d="M118 64h78q11 0 22.5 17.5t37.5 82.5q4 9 11 9q8 0 6 -8l-23 -153q-2 -12 -15 -12h-214q-6 0 -6 6q0 7 4 16l17 38q16 35 30 98.5t14 125.5q0 43 -10 90h-58v42h50q0 1 -14 48t-20.5 83.5t-6.5 76.5q0 62 30 94t80 32q57 0 87 -48.5t30 -120.5q0 -10 -7 -10q-8 0 -9 10
q-7 47 -32.5 83t-62.5 36q-52 0 -52 -66q0 -67 35 -177q1 -3 6 -17.5t7 -23.5h100v-42h-90q7 -51 7 -88q0 -29 -7.5 -68t-18 -80t-12.5 -55q-3 -19 6 -19z" />
    <glyph glyph-name="currency" unicode="&#xa4;" 
d="M300 475q-67 0 -114.5 -49.5t-47.5 -114.5q0 -67 47.5 -116.5t114.5 -49.5q68 0 116 49.5t48 116.5q0 66 -48 115t-116 49zM75 42l-44 42l98 98q-43 53 -43 129t43 129l-98 96l44 44l96 -98q53 43 129 43q79 0 129 -43l98 98l42 -44l-96 -96q43 -53 43 -129t-43 -129
l96 -98l-42 -42l-98 96q-53 -43 -129 -43t-129 43z" />
    <glyph glyph-name="yen" unicode="&#xa5;" horiz-adv-x="329" 
d="M191 750h123q9 0 9 -4q0 -2 -6 -12l-34 -33q-5 -4 -10 -23l-50 -228h62v-42h-71l-12 -55h83v-42h-86v-239q0 -17 11 -28l30 -29q7 -5 7 -9q0 -6 -6 -6h-154q-6 0 -6 6q0 4 7 9l30 29q11 11 11 28v239h-87v42h76l-11 55h-65v42h56l-47 228q-4 16 -11 23l-29 33q0 2 -2.5 6
t-2.5 6q0 4 8 4h136q8 0 8 -4q0 -1 -5 -11l-29 -28q-10 -8 -8 -20l53 -254h2l55 253q2 10 -9 21l-28 28q-6 8 -6 11q0 4 8 4z" />
    <glyph glyph-name="brokenbar" unicode="&#xa6;" horiz-adv-x="222" 
d="M86 -175v350h50v-350h-50zM86 325v350h50v-350h-50z" />
    <glyph glyph-name="section" unicode="&#xa7;" horiz-adv-x="278" 
d="M115 749q27 0 54 -22q7 -6 15 -6q7 0 23 16q15 13 21 13q7 0 7 -11v-248q0 -5 -6 -5q-4 0 -6 7q-15 75 -46.5 144t-65.5 69q-26 0 -26 -49q0 -34 19.5 -75.5t79.5 -130.5q51 -75 71 -122.5t20 -90.5q0 -75 -65 -102q46 -81 46 -147q0 -64 -26 -92.5t-59 -28.5
q-27 0 -56 19q-16 10 -20 10q-3 0 -32 -22q-9 -7 -12 -7q-5 0 -5 5v252q0 7 5 7q4 0 6 -7q7 -33 12.5 -54t16.5 -55t21.5 -54t26.5 -35.5t34 -15.5q27 0 27 48q0 44 -22.5 89.5t-76.5 126.5q-87 128 -87 208q0 82 66 101q-48 82 -48 161q0 49 24 76.5t64 27.5zM93 454
q-27 -12 -27 -50q0 -48 101 -202l24 -36q27 13 27 48t-21 74.5t-84 134.5q-3 6 -20 31z" />
    <glyph glyph-name="dieresis" unicode="&#xa8;" horiz-adv-x="233" 
d="M62 724q33 0 33 -31q0 -14 -9.5 -23.5t-23.5 -9.5q-13 0 -23.5 9.5t-10.5 23.5t10 22.5t24 8.5zM172 724q33 0 33 -31q0 -14 -9.5 -23.5t-23.5 -9.5q-13 0 -23.5 9.5t-10.5 23.5t10 22.5t24 8.5z" />
    <glyph glyph-name="copyright" unicode="&#xa9;" horiz-adv-x="560" 
d="M361 638v-178q0 -7 -5 -7q-4 0 -6 8q-9 59 -26 105.5t-43 46.5q-21 0 -26.5 -48.5t-5.5 -180.5q0 -110 4.5 -167.5t12.5 -74t22 -16.5q23 0 46 46.5t23 96.5q0 8 7 8t7 -8q0 -23 -4 -50t-13.5 -58.5t-29 -52t-46.5 -20.5q-94 0 -94 297q0 36 1 64t6.5 69t14.5 68t27.5 46
t44.5 18q20 0 36 -16q10 -4 13 -4q4 0 14 10t15 10t5 -12zM280 750q125 0 197 -105t72 -270t-72 -270t-197 -105t-197 105t-72 270t72 270t197 105zM280 34q103 0 153.5 90t50.5 251t-50.5 251t-153.5 90t-153.5 -90t-50.5 -251t50.5 -251t153.5 -90z" />
    <glyph glyph-name="ordfeminine" unicode="&#xaa;" horiz-adv-x="216" 
d="M164 675v-218q0 -14 9 -14q13 0 16 7q3 5 6 5q4 0 1 -10q-11 -29 -33 -29q-21 0 -42 21q-21 -21 -53 -21q-49 0 -49 102q0 48 16 71.5t67 62.5q12 9 12 31q0 39 -28 39q-31 0 -50 -19q-5 -5 -9 -5t-4 5q0 4 8 14.5t27 21.5t42 11q24 0 44 -17t20 -58zM114 480v155h-2
q-27 -20 -35 -44t-8 -67q0 -48 4.5 -64t15.5 -16q10 0 17.5 11t7.5 25z" />
    <glyph glyph-name="guillemotleft" unicode="&#xab;" horiz-adv-x="296" 
d="M158 547l-63 -118l63 -118q4 -10 -3.5 -13.5t-13.5 3.5l-109 117q-8 11 0 22l109 117q6 7 13.5 3t3.5 -13zM267 547l-63 -118l63 -118q4 -10 -3.5 -13.5t-13.5 3.5l-109 117q-8 11 0 22l109 117q6 7 13.5 3t3.5 -13z" />
    <glyph glyph-name="logicalnot" unicode="&#xac;" 
d="M502 108v217h-454v50h504v-267h-50z" />
    <glyph glyph-name="uni00AD" unicode="&#xad;" horiz-adv-x="192" 
d="M28 338h136v-42h-136v42z" />
    <glyph glyph-name="registered" unicode="&#xae;" horiz-adv-x="560" 
d="M254 359v-208q0 -12 7 -21l18 -21l3 -3q2 -3 2 -5q0 -4 -4 -4h-112q-4 0 -4 4q0 3 5 8l22 21q6 5 6 21v445q0 15 -6 21l-22 21q-5 5 -5 6q0 5 4 5h92q59 0 88 -32.5t29 -103.5q0 -95 -55 -131q47 -24 47 -83v-155q0 -5 4 -11l24 -24q3 -2 3 -8q0 -4 -5 -4h-35
q-21 0 -34 14.5t-13 36.5v154q0 24 -13.5 40.5t-32.5 16.5h-13zM254 612v-216h11q28 0 40 25.5t12 91.5q0 56 -12 77.5t-40 21.5h-11zM280 750q125 0 197 -105t72 -270t-72 -270t-197 -105t-197 105t-72 270t72 270t197 105zM280 34q103 0 153.5 90t50.5 251t-50.5 251
t-153.5 90t-153.5 -90t-50.5 -251t50.5 -251t153.5 -90z" />
    <glyph glyph-name="macron" unicode="&#xaf;" horiz-adv-x="212" 
d="M28 702h156v-40h-156v40z" />
    <glyph glyph-name="degree" unicode="&#xb0;" horiz-adv-x="400" 
d="M200 456q45 0 76.5 34t31.5 79t-31.5 79t-76.5 34t-76.5 -34t-31.5 -79t31.5 -79t76.5 -34zM200 426q-60 0 -101.5 41.5t-41.5 101.5t41.5 101.5t101.5 41.5t101.5 -41.5t41.5 -101.5t-41.5 -101.5t-101.5 -41.5z" />
    <glyph glyph-name="plusminus" unicode="&#xb1;" 
d="M275 320v186h50v-186h227v-50h-227v-186h-50v186h-227v50h227zM48 -12v50h504v-50h-504z" />
    <glyph glyph-name="twosuperior" unicode="&#xb2;" horiz-adv-x="207" 
d="M166 300h-131q-6 0 -2 8l11 22q0 4 -1 15t-1 17q0 48 40 116q45 74 45 173q0 37 -6 52t-20 15q-9 0 -17 -4t-14.5 -12.5t-10 -14t-9.5 -18.5t-8 -16q-3 -6 -9 -6q-5 0 -5 8q5 39 29.5 67t54.5 28q31 0 49 -25.5t18 -72.5q0 -103 -64 -195q-32 -49 -32 -89q0 -22 8 -30h48
q5 0 9 9l20 49q4 7 7 7q4 0 4 -5l-7 -93q0 -5 -6 -5z" />
    <glyph glyph-name="threesuperior" unicode="&#xb3;" horiz-adv-x="211" 
d="M70 530v9q0 5 6 5q23 0 39.5 20.5t16.5 67.5q0 84 -32 84q-8 0 -15.5 -4.5t-13.5 -10.5t-11.5 -14.5t-9 -15t-6.5 -12.5l-3 -6q-3 -6 -9 -6q-4 0 -4 8q5 39 29.5 67t54.5 28q31 0 51 -27t20 -76q0 -48 -17.5 -75.5t-40.5 -35.5v-1q58 -20 58 -119q0 -116 -83 -116
q-37 0 -54.5 34t-17.5 80q0 8 5 8q7 0 8 -7q2 -12 7.5 -28t19 -34.5t28.5 -18.5q18 0 27 19t9 72q0 48 -17 74.5t-39 26.5q-6 0 -6 4z" />
    <glyph glyph-name="acute" unicode="&#xb4;" horiz-adv-x="210" 
d="M34 643l-6 10l113 91q11 11 16 4l24 -43q3 -5 -10 -11z" />
    <glyph glyph-name="mu" unicode="&#xb5;" horiz-adv-x="308" 
d="M42 -124v632q0 5 -3 8l-30 28q-4 6 -4 8q0 4 6 4h96q5 0 5 -6v-449q0 -58 32 -58q22 0 37 22t15 55v388q0 5 -3 8l-29 28q-5 5 -5 8q0 4 6 4h96q5 0 5 -6v-495q0 -7 1 -9l31 -35q5 -3 5 -7t-7 -4h-93q-7 0 -7 4v34h-2q-28 -38 -91 -38q-12 -8 -12 -38q0 -23 23 -48
l31 -35q4 -6 4 -8q0 -3 -6 -3h-94q-7 0 -7 8z" />
    <glyph glyph-name="paragraph" unicode="&#xb6;" 
d="M499 750v-22q-65 -4 -78 -19q-7 -8 -7 -82v-616q0 -49 3 -73q2 -13 19 -18t53 -9q7 -1 10 -1v-22h-135v832h-59v-832h-135v22q63 7 75 16q6 5 7 12q3 14 3 73v338q-100 0 -152.5 61t-52.5 142q0 76 56.5 137t152.5 61h240z" />
    <glyph glyph-name="periodcentered" unicode="&#xb7;" horiz-adv-x="129" 
d="M64 450q19 0 28 -15t9 -35q0 -21 -9 -36t-28 -15q-18 0 -27 15t-9 36q0 20 9 35t27 15z" />
    <glyph glyph-name="cedilla" unicode="&#xb8;" horiz-adv-x="183" 
d="M82 10h29l-16 -50q24 3 42 -14t18 -41q0 -26 -18 -43t-44 -17q-27 0 -65 27l9 14q24 -11 48 -11q13 0 21.5 8.5t8.5 22.5q0 17 -18 24t-40 1z" />
    <glyph glyph-name="onesuperior" unicode="&#xb9;" horiz-adv-x="170" 
d="M60 343v335q0 5 -3 7l-29 15q-4 2 -4 4t5 4q46 9 66 37l5 5h9q6 0 4 -7q-3 -12 -3 -61v-339q0 -11 6 -17l19 -17l5 -5q0 -4 -4 -4h-100q-5 0 -5 4l5 5l20 17q4 3 4 17z" />
    <glyph glyph-name="ordmasculine" unicode="&#xba;" horiz-adv-x="216" 
d="M108 750q36 0 62.5 -40t26.5 -125q0 -88 -26 -128.5t-63 -40.5q-39 0 -64 40t-25 129q0 85 26.5 125t62.5 40zM108 722q-39 0 -39 -137q0 -141 39 -141t39 141q0 137 -39 137z" />
    <glyph glyph-name="guillemotright" unicode="&#xbb;" horiz-adv-x="296" 
d="M92 429l-63 118q-4 9 3.5 13t13.5 -3l109 -117q8 -11 0 -22l-109 -117q-6 -7 -13.5 -3.5t-3.5 13.5zM201 429l-63 118q-4 9 3.5 13t13.5 -3l109 -117q8 -11 0 -22l-109 -117q-6 -7 -13.5 -3.5t-3.5 13.5z" />
    <glyph glyph-name="onequarter" unicode="&#xbc;" horiz-adv-x="432" 
d="M329 43v88h-105q-4 0 -4 4t5 19l114 289q3 7 8 7h26q6 0 6 -5v-280q7 0 9 2l21 22q2 4 5 4q2 0 2 -4v-54q0 -4 -4 -4h-33v-88q0 -11 5 -17l20 -17q5 -5 5 -7t-4 -2h-102q-4 0 -4 4l5 5l19 17q6 6 6 17zM323 739l-201 -739l-43 11l201 739zM329 165v166h-2l-59 -151
q-2 -6 -2 -11q0 -4 5 -4h58zM60 343v335q0 5 -3 7l-29 15q-4 2 -4 4t5 4q46 9 66 37l5 5h9q6 0 4 -7q-3 -12 -3 -61v-339q0 -11 6 -17l19 -17l5 -5q0 -4 -4 -4h-100q-5 0 -5 4l5 5l20 17q4 3 4 17z" />
    <glyph glyph-name="onehalf" unicode="&#xbd;" horiz-adv-x="428" 
d="M323 739l-201 -739l-43 11l201 739zM60 343v335q0 5 -3 7l-29 15q-4 2 -4 4t5 4q46 9 66 37l5 5h9q6 0 4 -7q-3 -12 -3 -61v-339q0 -11 6 -17l19 -17l5 -5q0 -4 -4 -4h-100q-5 0 -5 4l5 5l20 17q4 3 4 17zM387 0h-131q-6 0 -2 8l11 22q0 4 -1 15t-1 17q0 48 40 116
q45 74 45 173q0 37 -6 52t-20 15q-9 0 -17 -4t-14.5 -12.5t-10 -14t-9.5 -18.5t-8 -16q-3 -6 -9 -6q-5 0 -5 8q5 39 29.5 67t54.5 28q31 0 49 -25.5t18 -72.5q0 -103 -64 -195q-32 -49 -32 -89q0 -22 8 -30h48q5 0 9 9l20 49q3 7 7 7t4 -5l-7 -93q0 -5 -6 -5z" />
    <glyph glyph-name="threequarters" unicode="&#xbe;" horiz-adv-x="473" 
d="M364 739l-201 -739l-43 11l201 739zM370 43v88h-105q-4 0 -4 4t5 19l114 289q3 7 8 7h26q6 0 6 -5v-280q7 0 9 2l21 22q2 4 5 4q2 0 2 -4v-54q0 -4 -4 -4h-33v-88q0 -11 5 -17l20 -17q5 -5 5 -7t-4 -2h-102q-4 0 -4 4l5 5l19 17q6 6 6 17zM70 530v9q0 5 6 5
q23 0 39.5 20.5t16.5 67.5q0 84 -32 84q-8 0 -15.5 -4.5t-13.5 -10.5t-11.5 -14.5t-9 -15t-6.5 -12.5l-3 -6q-3 -6 -9 -6q-4 0 -4 8q5 39 29.5 67t54.5 28q31 0 51 -27t20 -76q0 -48 -17.5 -75.5t-40.5 -35.5v-1q58 -20 58 -119q0 -116 -83 -116q-37 0 -54.5 34t-17.5 80
q0 8 5 8q7 0 8 -7q2 -12 7.5 -28t19 -34.5t28.5 -18.5q18 0 27 19t9 72q0 48 -17 74.5t-39 26.5q-6 0 -6 4zM370 165v166h-2l-59 -151q-2 -6 -2 -11q0 -4 5 -4h58z" />
    <glyph glyph-name="questiondown" unicode="&#xbf;" horiz-adv-x="283" 
d="M135 430v129q0 11 10 11q9 0 11 -11l26 -137q8 -40 -11 -63q-46 -56 -61.5 -105.5t-15.5 -107.5q0 -38 14.5 -67t39.5 -29t46.5 26t31 51.5t14.5 48.5q2 11 9 11q8 0 8 -13q0 -24 -6 -52t-19 -56.5t-37.5 -47t-56.5 -18.5q-57 0 -84.5 42t-27.5 108q0 59 19.5 110
t74.5 127q15 21 15 43zM132 649q-36 0 -36 51q0 50 36 50q18 0 27 -15t9 -35q0 -21 -9 -36t-27 -15z" />
    <glyph glyph-name="Agrave" unicode="&#xc0;" horiz-adv-x="333" 
d="M212 62l-15 105q-2 9 -9 9h-74q-4 0 -6 -7l-15 -110q-1 -10 5 -18l22 -23q1 -2 4 -4.5t4.5 -4.5t1.5 -3q0 -6 -7 -6h-115q-6 0 -6 6q0 3 7 10l28 28q6 6 8 25l91 672q2 9 8 9h37q7 0 9 -11l95 -671q2 -19 11 -27l29 -26q6 -6 6 -9q0 -6 -7 -6h-144q-7 0 -7 6q0 2 7 9
l27 27q7 6 5 20zM120 229h63q6 0 4 7l-35 245h-2l-33 -246q-1 -6 3 -6zM187 777l-6 -10l-136 51q-14 5 -10 11l23 43q5 6 17 -4z" />
    <glyph glyph-name="Aacute" unicode="&#xc1;" horiz-adv-x="333" 
d="M212 62l-15 105q-2 9 -9 9h-74q-4 0 -6 -7l-15 -110q-1 -10 5 -18l22 -23q1 -2 4 -4.5t4.5 -4.5t1.5 -3q0 -6 -7 -6h-115q-6 0 -6 6q0 3 7 10l28 28q6 6 8 25l91 672q2 9 8 9h37q7 0 9 -11l95 -671q2 -19 11 -27l29 -26q6 -6 6 -9q0 -6 -7 -6h-144q-7 0 -7 6q0 2 7 9
l27 27q7 6 5 20zM120 229h63q6 0 4 7l-35 245h-2l-33 -246q-1 -6 3 -6zM140 768l-6 10l113 91q11 11 16 4l24 -43q3 -5 -10 -11z" />
    <glyph glyph-name="Acircumflex" unicode="&#xc2;" horiz-adv-x="333" 
d="M212 62l-15 105q-2 9 -9 9h-74q-4 0 -6 -7l-15 -110q-1 -10 5 -18l22 -23q1 -2 4 -4.5t4.5 -4.5t1.5 -3q0 -6 -7 -6h-115q-6 0 -6 6q0 3 7 10l28 28q6 6 8 25l91 672q2 9 8 9h37q7 0 9 -11l95 -671q2 -19 11 -27l29 -26q6 -6 6 -9q0 -6 -7 -6h-144q-7 0 -7 6q0 2 7 9
l27 27q7 6 5 20zM120 229h63q6 0 4 7l-35 245h-2l-33 -246q-1 -6 3 -6zM228 762l-58 50q-12 10 -22 0l-58 -50l-11 8l68 108q3 8 12 8q8 0 13 -8l67 -108z" />
    <glyph glyph-name="Atilde" unicode="&#xc3;" horiz-adv-x="333" 
d="M212 62l-15 105q-2 9 -9 9h-74q-4 0 -6 -7l-15 -110q-1 -10 5 -18l22 -23q1 -2 4 -4.5t4.5 -4.5t1.5 -3q0 -6 -7 -6h-115q-6 0 -6 6q0 3 7 10l28 28q6 6 8 25l91 672q2 9 8 9h37q7 0 9 -11l95 -671q2 -19 11 -27l29 -26q6 -6 6 -9q0 -6 -7 -6h-144q-7 0 -7 6q0 2 7 9
l27 27q7 6 5 20zM120 229h63q6 0 4 7l-35 245h-2l-33 -246q-1 -6 3 -6zM90 765l-13 7q21 81 48 81q13 0 38 -15l25 -15q7 -4 18 -4q17 0 36 40l14 -7q-9 -35 -22.5 -58.5t-27.5 -23.5q-12 0 -32 10l-23 13q-17 10 -26 10q-14 0 -35 -38z" />
    <glyph glyph-name="Adieresis" unicode="&#xc4;" horiz-adv-x="333" 
d="M212 62l-15 105q-2 9 -9 9h-74q-4 0 -6 -7l-15 -110q-1 -10 5 -18l22 -23q1 -2 4 -4.5t4.5 -4.5t1.5 -3q0 -6 -7 -6h-115q-6 0 -6 6q0 3 7 10l28 28q6 6 8 25l91 672q2 9 8 9h37q7 0 9 -11l95 -671q2 -19 11 -27l29 -26q6 -6 6 -9q0 -6 -7 -6h-144q-7 0 -7 6q0 2 7 9
l27 27q7 6 5 20zM120 229h63q6 0 4 7l-35 245h-2l-33 -246q-1 -6 3 -6zM104 849q33 0 33 -31q0 -14 -9.5 -23.5t-23.5 -9.5q-13 0 -23.5 9.5t-10.5 23.5t10 22.5t24 8.5zM214 849q33 0 33 -31q0 -14 -9.5 -23.5t-23.5 -9.5q-13 0 -23.5 9.5t-10.5 23.5t10 22.5t24 8.5z" />
    <glyph glyph-name="Aring" unicode="&#xc5;" horiz-adv-x="333" 
d="M120 229h63q6 0 4 7l-35 245h-2l-33 -246q-1 -6 3 -6zM159 852q-24 0 -24 -47q0 -48 24 -48q25 0 25 48q0 47 -25 47zM212 62l-15 105q-2 9 -9 9h-74q-4 0 -6 -7l-15 -110q-1 -10 5 -18l22 -23q1 -2 4 -4.5t4.5 -4.5t1.5 -3q0 -6 -7 -6h-115q-6 0 -6 6q0 3 7 10l28 28
q6 6 8 25l91 669q-19 7 -31.5 25t-12.5 42q0 30 21 50.5t46 20.5q27 0 48 -20.5t21 -50.5q0 -46 -39 -64q1 -1 1 -2l95 -671q2 -19 11 -27l29 -26q6 -6 6 -9q0 -6 -7 -6h-144q-7 0 -7 6q0 2 7 9l27 27q7 6 5 20z" />
    <glyph glyph-name="AE" unicode="&#xc6;" horiz-adv-x="463" 
d="M212 236v331h-2l-74 -330q-1 -3 2.5 -5.5t6.5 -2.5h63q4 0 4 7zM289 700v-293h22q8 0 11 7l35 70q3 6 6 6q4 0 4 -6v-212q0 -5 -4 -5q-3 0 -7 7l-34 73q-3 7 -11 7h-22v-304h57q21 0 27 18l54 192q1 6 7 6q5 0 5 -6v-251q0 -9 -8 -9h-259q-6 0 -6 6q0 4 7 9l30 29
q9 9 9 28v97q0 7 -6 7h-75q-9 0 -11 -8l-27 -117q-2 -9 1 -13l23 -25q5 -5 5 -10q0 -3 -5 -3h-108q-7 0 -7 6q0 2 9 11l25 26q8 9 10 18l155 676q4 13 11 13h219q8 0 8 -9v-249q0 -6 -5 -6q-6 0 -8 7l-54 188q-6 19 -26 19h-57z" />
    <glyph glyph-name="Ccedilla" unicode="&#xc7;" horiz-adv-x="292" 
d="M107 -128l9 14q24 -11 48 -11q13 0 21.5 8.5t8.5 22.5q0 17 -18 24t-40 1l22 69q-130 0 -130 395q0 49 1.5 85.5t8.5 91t20 90t38.5 62t61.5 26.5q22 0 48 -21q7 -6 17 -6q9 0 19 12q13 15 19 15q7 0 7 -17v-238q0 -9 -6 -9t-8 11q-11 80 -34.5 141.5t-57.5 61.5
q-31 0 -41.5 -68.5t-10.5 -237.5q0 -146 8 -222.5t21 -99t38 -22.5t43.5 48.5t25.5 90.5t7 54q0 8 8 8q7 0 7 -9q0 -105 -17.5 -164.5t-62.5 -72.5l-14 -45q24 3 42 -14t18 -41q0 -26 -18 -43t-44 -17q-27 0 -65 27z" />
    <glyph glyph-name="Egrave" unicode="&#xc8;" horiz-adv-x="309" 
d="M135 700v-293h22q8 0 11 7l35 70q3 6 6 6q4 0 4 -6v-212q0 -5 -4 -5q-3 0 -7 7l-34 73q-3 7 -11 7h-22v-304h57q21 0 27 18l54 192q1 6 7 6q5 0 5 -6v-251q0 -9 -8 -9h-259q-6 0 -6 6q0 2 3 4.5t4 4.5l30 29q9 9 9 28v606q0 19 -9 28l-30 29l-3 3q-4 4 -4 6q0 6 6 6h259
q8 0 8 -9v-249q0 -6 -5 -6q-6 0 -8 7l-54 188q-6 19 -26 19h-57zM187 777l-6 -10l-136 51q-14 5 -10 11l23 43q5 6 17 -4z" />
    <glyph glyph-name="Eacute" unicode="&#xc9;" horiz-adv-x="309" 
d="M135 700v-293h22q8 0 11 7l35 70q3 6 6 6q4 0 4 -6v-212q0 -5 -4 -5q-3 0 -7 7l-34 73q-3 7 -11 7h-22v-304h57q21 0 27 18l54 192q1 6 7 6q5 0 5 -6v-251q0 -9 -8 -9h-259q-6 0 -6 6q0 2 3 4.5t4 4.5l30 29q9 9 9 28v606q0 19 -9 28l-30 29l-3 3q-4 4 -4 6q0 6 6 6h259
q8 0 8 -9v-249q0 -6 -5 -6q-6 0 -8 7l-54 188q-6 19 -26 19h-57zM128 768l-6 10l113 91q11 11 16 4l24 -43q3 -5 -10 -11z" />
    <glyph glyph-name="Ecircumflex" unicode="&#xca;" horiz-adv-x="309" 
d="M135 700v-293h22q8 0 11 7l35 70q3 6 6 6q4 0 4 -6v-212q0 -5 -4 -5q-3 0 -7 7l-34 73q-3 7 -11 7h-22v-304h57q21 0 27 18l54 192q1 6 7 6q5 0 5 -6v-251q0 -9 -8 -9h-259q-6 0 -6 6q0 2 3 4.5t4 4.5l30 29q9 9 9 28v606q0 19 -9 28l-30 29l-3 3q-4 4 -4 6q0 6 6 6h259
q8 0 8 -9v-249q0 -6 -5 -6q-6 0 -8 7l-54 188q-6 19 -26 19h-57zM224 762l-58 50q-12 10 -22 0l-58 -50l-11 8l68 108q3 8 12 8q8 0 13 -8l67 -108z" />
    <glyph glyph-name="Edieresis" unicode="&#xcb;" horiz-adv-x="309" 
d="M135 700v-293h22q8 0 11 7l35 70q3 6 6 6q4 0 4 -6v-212q0 -5 -4 -5q-3 0 -7 7l-34 73q-3 7 -11 7h-22v-304h57q21 0 27 18l54 192q1 6 7 6q5 0 5 -6v-251q0 -9 -8 -9h-259q-6 0 -6 6q0 2 3 4.5t4 4.5l30 29q9 9 9 28v606q0 19 -9 28l-30 29l-3 3q-4 4 -4 6q0 6 6 6h259
q8 0 8 -9v-249q0 -6 -5 -6q-6 0 -8 7l-54 188q-6 19 -26 19h-57zM100 849q33 0 33 -31q0 -14 -9.5 -23.5t-23.5 -9.5q-13 0 -23.5 9.5t-10.5 23.5t10 22.5t24 8.5zM210 849q33 0 33 -31q0 -14 -9.5 -23.5t-23.5 -9.5q-13 0 -23.5 9.5t-10.5 23.5t10 22.5t24 8.5z" />
    <glyph glyph-name="Igrave" unicode="&#xcc;" horiz-adv-x="193" 
d="M58 72v606q0 19 -9 28l-30 29l-3 3q-4 4 -4 6q0 6 6 6h157q6 0 6 -6q0 -2 -4 -6l-3 -3l-30 -29q-9 -9 -9 -28v-606q0 -19 9 -28l30 -29l3 -3q4 -4 4 -6q0 -6 -6 -6h-157q-6 0 -6 6q0 2 4 6l3 3l30 29q9 9 9 28zM129 777l-6 -10l-136 51q-14 5 -10 11l23 43q5 6 17 -4z
" />
    <glyph glyph-name="Iacute" unicode="&#xcd;" horiz-adv-x="193" 
d="M58 72v606q0 19 -9 28l-30 29l-3 3q-4 4 -4 6q0 6 6 6h157q6 0 6 -6q0 -2 -4 -6l-3 -3l-30 -29q-9 -9 -9 -28v-606q0 -19 9 -28l30 -29l3 -3q4 -4 4 -6q0 -6 -6 -6h-157q-6 0 -6 6q0 2 4 6l3 3l30 29q9 9 9 28zM70 768l-6 10l113 91q11 11 16 4l24 -43q3 -5 -10 -11z" />
    <glyph glyph-name="Icircumflex" unicode="&#xce;" horiz-adv-x="193" 
d="M58 72v606q0 19 -9 28l-30 29l-3 3q-4 4 -4 6q0 6 6 6h157q6 0 6 -6q0 -2 -4 -6l-3 -3l-30 -29q-9 -9 -9 -28v-606q0 -19 9 -28l30 -29l3 -3q4 -4 4 -6q0 -6 -6 -6h-157q-6 0 -6 6q0 2 4 6l3 3l30 29q9 9 9 28zM166 762l-58 50q-12 10 -22 0l-58 -50l-11 8l68 108
q3 8 12 8q8 0 13 -8l67 -108z" />
    <glyph glyph-name="Idieresis" unicode="&#xcf;" horiz-adv-x="193" 
d="M58 72v606q0 19 -9 28l-30 29l-3 3q-4 4 -4 6q0 6 6 6h157q6 0 6 -6q0 -2 -4 -6l-3 -3l-30 -29q-9 -9 -9 -28v-606q0 -19 9 -28l30 -29l3 -3q4 -4 4 -6q0 -6 -6 -6h-157q-6 0 -6 6q0 2 4 6l3 3l30 29q9 9 9 28zM42 849q33 0 33 -31q0 -14 -9.5 -23.5t-23.5 -9.5
q-13 0 -23.5 9.5t-10.5 23.5t10 22.5t24 8.5zM152 849q33 0 33 -31q0 -14 -9.5 -23.5t-23.5 -9.5q-13 0 -23.5 9.5t-10.5 23.5t10 22.5t24 8.5z" />
    <glyph glyph-name="Eth" unicode="&#xd0;" horiz-adv-x="339" 
d="M135 359v-309h18q13 0 23 6t20.5 27t17 57.5t11 100.5t4.5 153q0 78 -4.5 134.5t-11 89t-17 51.5t-20.5 25t-23 6h-18v-298h48v-43h-48zM58 72v287h-46v43h46v276q0 19 -9 28l-30 29l-3 3q-4 4 -4 6q0 6 6 6h132q79 0 120 -84t41 -272q0 -120 -10.5 -199t-32.5 -121
t-49.5 -58t-68.5 -16h-132q-6 0 -6 6q0 2 3 4.5t4 4.5l30 29q9 9 9 28z" />
    <glyph glyph-name="Ntilde" unicode="&#xd1;" horiz-adv-x="356" 
d="M53 72v606q0 16 -9 28l-25 29q-1 1 -2.5 3t-3 3.5t-1.5 3.5q0 5 6 5h120q9 0 12 -17l92 -430h2v375q0 18 -9 27l-28 30q-1 1 -2.5 3t-3 3.5t-1.5 3.5q0 5 6 5h132q6 0 6 -5q0 -3 -7 -10l-25 -29q-9 -12 -9 -28v-667q0 -11 -10 -11h-42q-15 0 -20 25l-117 545h-2v-498
q0 -17 10 -27l27 -30q7 -7 7 -10q0 -5 -6 -5h-132q-6 0 -6 5q0 2 1.5 3.5t3 3.5t2.5 3l25 29q9 12 9 28zM105 765l-13 7q21 81 48 81q13 0 38 -15l25 -15q7 -4 18 -4q17 0 36 40l14 -7q-21 -82 -50 -82q-12 0 -32 10l-23 13q-17 10 -26 10q-14 0 -35 -38z" />
    <glyph glyph-name="Ograve" unicode="&#xd2;" horiz-adv-x="323" 
d="M161 750q134 0 134 -355q0 -65 -2 -114.5t-10 -105.5t-22 -91.5t-39.5 -59.5t-60.5 -24t-60 24t-39 59.5t-22 91.5t-10 105.5t-2 114.5q0 355 133 355zM161 700q-51 0 -51 -306q0 -344 51 -344q52 0 52 344q0 306 -52 306zM194 777l-6 -10l-136 51q-14 5 -10 11l23 43
q5 6 17 -4z" />
    <glyph glyph-name="Oacute" unicode="&#xd3;" horiz-adv-x="323" 
d="M161 750q134 0 134 -355q0 -65 -2 -114.5t-10 -105.5t-22 -91.5t-39.5 -59.5t-60.5 -24t-60 24t-39 59.5t-22 91.5t-10 105.5t-2 114.5q0 355 133 355zM161 700q-51 0 -51 -306q0 -344 51 -344q52 0 52 344q0 306 -52 306zM135 768l-6 10l113 91q11 11 16 4l24 -43
q3 -5 -10 -11z" />
    <glyph glyph-name="Ocircumflex" unicode="&#xd4;" horiz-adv-x="323" 
d="M161 750q134 0 134 -355q0 -65 -2 -114.5t-10 -105.5t-22 -91.5t-39.5 -59.5t-60.5 -24t-60 24t-39 59.5t-22 91.5t-10 105.5t-2 114.5q0 355 133 355zM161 700q-51 0 -51 -306q0 -344 51 -344q52 0 52 344q0 306 -52 306zM229 762l-58 50q-12 10 -22 0l-58 -50l-11 8
l68 108q3 8 12 8q8 0 13 -8l67 -108z" />
    <glyph glyph-name="Otilde" unicode="&#xd5;" horiz-adv-x="323" 
d="M161 750q134 0 134 -355q0 -65 -2 -114.5t-10 -105.5t-22 -91.5t-39.5 -59.5t-60.5 -24t-60 24t-39 59.5t-22 91.5t-10 105.5t-2 114.5q0 355 133 355zM161 700q-51 0 -51 -306q0 -344 51 -344q52 0 52 344q0 306 -52 306zM85 765l-13 7q21 81 48 81q13 0 38 -15l25 -15
q7 -4 18 -4q17 0 36 40l14 -7q-21 -82 -50 -82q-12 0 -32 10l-23 13q-17 10 -26 10q-14 0 -35 -38z" />
    <glyph glyph-name="Odieresis" unicode="&#xd6;" horiz-adv-x="323" 
d="M161 750q134 0 134 -355q0 -65 -2 -114.5t-10 -105.5t-22 -91.5t-39.5 -59.5t-60.5 -24t-60 24t-39 59.5t-22 91.5t-10 105.5t-2 114.5q0 355 133 355zM161 700q-51 0 -51 -306q0 -344 51 -344q52 0 52 344q0 306 -52 306zM107 849q33 0 33 -31q0 -14 -9.5 -23.5
t-23.5 -9.5q-13 0 -23.5 9.5t-10.5 23.5t10 22.5t24 8.5zM217 849q33 0 33 -31q0 -14 -9.5 -23.5t-23.5 -9.5q-13 0 -23.5 9.5t-10.5 23.5t10 22.5t24 8.5z" />
    <glyph glyph-name="multiply" unicode="&#xd7;" 
d="M264 253l-195 195l36 36l194 -196l196 196l36 -36l-196 -195l196 -195l-36 -36l-196 196l-194 -196l-36 36z" />
    <glyph glyph-name="Oslash" unicode="&#xd8;" horiz-adv-x="323" 
d="M112 295l95 243q-10 162 -46 162q-51 0 -51 -306v-99h2zM210 452l-94 -244q11 -158 45 -158q52 0 52 344q0 44 -1 58h-2zM324 739l-48 -123q19 -81 19 -221q0 -65 -2 -114.5t-10 -105.5t-22 -91.5t-39.5 -59.5t-60.5 -24q-65 0 -96 79l-31 -79l-34 11l48 123
q-20 86 -20 261q0 355 133 355q63 0 98 -80l31 80z" />
    <glyph glyph-name="Ugrave" unicode="&#xd9;" horiz-adv-x="332" 
d="M48 108v570q0 20 -8 28l-31 29q-5 5 -5 9q0 6 6 6h153q6 0 6 -6q0 -4 -5 -9l-31 -29q-8 -10 -8 -28v-544q0 -41 9.5 -62.5t41.5 -21.5q47 0 47 84v544q0 20 -8 28l-31 29q-5 5 -5 9q0 6 6 6h137q6 0 6 -6q0 -4 -5 -9l-31 -29q-8 -10 -8 -28v-570q0 -47 -32.5 -77.5
t-83.5 -30.5q-57 0 -88.5 30t-31.5 78zM199 777l-6 -10l-136 51q-14 5 -10 11l23 43q5 6 17 -4z" />
    <glyph glyph-name="Uacute" unicode="&#xda;" horiz-adv-x="332" 
d="M48 108v570q0 20 -8 28l-31 29q-5 5 -5 9q0 6 6 6h153q6 0 6 -6q0 -4 -5 -9l-31 -29q-8 -10 -8 -28v-544q0 -41 9.5 -62.5t41.5 -21.5q47 0 47 84v544q0 20 -8 28l-31 29q-5 5 -5 9q0 6 6 6h137q6 0 6 -6q0 -4 -5 -9l-31 -29q-8 -10 -8 -28v-570q0 -47 -32.5 -77.5
t-83.5 -30.5q-57 0 -88.5 30t-31.5 78zM139 768l-6 10l113 91q11 11 16 4l24 -43q3 -5 -10 -11z" />
    <glyph glyph-name="Ucircumflex" unicode="&#xdb;" horiz-adv-x="332" 
d="M48 108v570q0 20 -8 28l-31 29q-5 5 -5 9q0 6 6 6h153q6 0 6 -6q0 -4 -5 -9l-31 -29q-8 -10 -8 -28v-544q0 -41 9.5 -62.5t41.5 -21.5q47 0 47 84v544q0 20 -8 28l-31 29q-5 5 -5 9q0 6 6 6h137q6 0 6 -6q0 -4 -5 -9l-31 -29q-8 -10 -8 -28v-570q0 -47 -32.5 -77.5
t-83.5 -30.5q-57 0 -88.5 30t-31.5 78zM235 762l-58 50q-12 10 -22 0l-58 -50l-11 8l68 108q3 8 12 8q8 0 13 -8l67 -108z" />
    <glyph glyph-name="Udieresis" unicode="&#xdc;" horiz-adv-x="332" 
d="M48 108v570q0 20 -8 28l-31 29q-5 5 -5 9q0 6 6 6h153q6 0 6 -6q0 -4 -5 -9l-31 -29q-8 -10 -8 -28v-544q0 -41 9.5 -62.5t41.5 -21.5q47 0 47 84v544q0 20 -8 28l-31 29q-5 5 -5 9q0 6 6 6h137q6 0 6 -6q0 -4 -5 -9l-31 -29q-8 -10 -8 -28v-570q0 -47 -32.5 -77.5
t-83.5 -30.5q-57 0 -88.5 30t-31.5 78zM112 849q33 0 33 -31q0 -14 -9.5 -23.5t-23.5 -9.5q-13 0 -23.5 9.5t-10.5 23.5t10 22.5t24 8.5zM222 849q33 0 33 -31q0 -14 -9.5 -23.5t-23.5 -9.5q-13 0 -23.5 9.5t-10.5 23.5t10 22.5t24 8.5z" />
    <glyph glyph-name="Yacute" unicode="&#xdd;" horiz-adv-x="325" 
d="M123 72v239l-74 367q-1 12 -11 23l-28 34q-6 9 -6 11q0 4 7 4h143q8 0 8 -5t-7 -10l-31 -29q-6 -6 -3 -19l45 -221h2l47 221q3 13 -4 19l-32 29q-7 5 -7 10t9 5h132q8 0 8 -4t-7 -11l-33 -34q-7 -8 -10 -23l-71 -336v-270q0 -19 9 -28l30 -29l3 -3q4 -4 4 -6q0 -6 -6 -6
h-157q-6 0 -6 6q0 2 4 6l3 3l30 29q9 9 9 28zM136 768l-6 10l113 91q11 11 16 4l24 -43q3 -5 -10 -11z" />
    <glyph glyph-name="Thorn" unicode="&#xde;" horiz-adv-x="325" 
d="M58 72v606q0 19 -9 28l-30 29l-3 3q-4 4 -4 6q0 6 6 6h157q6 0 6 -6q0 -2 -4 -6l-3 -3l-30 -29q-9 -9 -9 -28v-76h34q64 0 98 -43t34 -151q0 -99 -33 -153.5t-99 -54.5h-34v-128q0 -21 9 -28l37 -29q7 -7 7 -9q0 -6 -6 -6h-164q-6 0 -6 6q0 2 3 4.5t4 4.5l30 29q9 9 9 28
zM135 552v-302h29q31 0 43 36t12 122q0 83 -11.5 113.5t-43.5 30.5h-29z" />
    <glyph glyph-name="germandbls" unicode="&#xdf;" horiz-adv-x="322" 
d="M112 592v-587q0 -5 -5 -5h-96q-6 0 -6 4q0 3 4 7l31 35q2 2 2 9v543q0 72 33.5 112t81.5 40q54 0 88.5 -50t34.5 -135q0 -131 -78 -173q41 -19 67.5 -65t26.5 -119q0 -98 -29 -153t-71 -55q-31 0 -48.5 34t-17.5 60q0 9 7 9q4 0 9 -10l3 -7q3 -7 6.5 -13t8 -13.5t11 -12
t13.5 -4.5q18 0 24 35t6 130q0 78 -16 123.5t-46 45.5q-10 0 -10 8v11q0 10 10 10q29 0 38.5 34t9.5 128q0 82 -11 114.5t-36 32.5q-45 0 -45 -123z" />
    <glyph glyph-name="agrave" unicode="&#xe0;" horiz-adv-x="291" 
d="M241 431v-363q0 -25 13 -25q18 0 29 17q4 4 5 4q3 0 3 -5q-3 -23 -18.5 -41t-33.5 -18q-34 0 -59 38q-34 -38 -69 -38q-87 0 -87 162q0 84 22 124t105 106q14 11 17 22t3 44t-9 44t-33 11q-20 0 -47 -13t-42 -28q-3 -3 -8 -3q-3 0 -3 5q0 14 38 48t75 34t68 -28.5
t31 -96.5zM171 102v262h-2q-42 -36 -56.5 -72.5t-14.5 -111.5q0 -56 4 -86.5t10.5 -40.5t18.5 -10q16 0 28 18.5t12 40.5zM178 602l-6 -10l-136 51q-14 5 -10 11l23 43q5 6 17 -4z" />
    <glyph glyph-name="aacute" unicode="&#xe1;" horiz-adv-x="291" 
d="M241 431v-363q0 -25 13 -25q18 0 29 17q4 4 5 4q3 0 3 -5q-3 -23 -18.5 -41t-33.5 -18q-34 0 -59 38q-34 -38 -69 -38q-87 0 -87 162q0 84 22 124t105 106q14 11 17 22t3 44t-9 44t-33 11q-20 0 -47 -13t-42 -28q-3 -3 -8 -3q-3 0 -3 5q0 14 38 48t75 34t68 -28.5
t31 -96.5zM171 102v262h-2q-42 -36 -56.5 -72.5t-14.5 -111.5q0 -56 4 -86.5t10.5 -40.5t18.5 -10q16 0 28 18.5t12 40.5zM119 593l-6 10l113 91q11 11 16 4l24 -43q3 -5 -10 -11z" />
    <glyph glyph-name="acircumflex" unicode="&#xe2;" horiz-adv-x="291" 
d="M241 431v-363q0 -25 13 -25q18 0 29 17q4 4 5 4q3 0 3 -5q-3 -23 -18.5 -41t-33.5 -18q-34 0 -59 38q-34 -38 -69 -38q-87 0 -87 162q0 84 22 124t105 106q14 11 17 22t3 44t-9 44t-33 11q-20 0 -47 -13t-42 -28q-3 -3 -8 -3q-3 0 -3 5q0 14 38 48t75 34t68 -28.5
t31 -96.5zM171 102v262h-2q-42 -36 -56.5 -72.5t-14.5 -111.5q0 -56 4 -86.5t10.5 -40.5t18.5 -10q16 0 28 18.5t12 40.5zM215 587l-58 50q-12 10 -22 0l-58 -50l-11 8l68 108q3 8 12 8q8 0 13 -8l67 -108z" />
    <glyph glyph-name="atilde" unicode="&#xe3;" horiz-adv-x="291" 
d="M241 431v-363q0 -25 13 -25q18 0 29 17q4 4 5 4q3 0 3 -5q-3 -23 -18.5 -41t-33.5 -18q-34 0 -59 38q-34 -38 -69 -38q-87 0 -87 162q0 84 22 124t105 106q14 11 17 22t3 44t-9 44t-33 11q-20 0 -47 -13t-42 -28q-3 -3 -8 -3q-3 0 -3 5q0 14 38 48t75 34t68 -28.5
t31 -96.5zM171 102v262h-2q-42 -36 -56.5 -72.5t-14.5 -111.5q0 -56 4 -86.5t10.5 -40.5t18.5 -10q16 0 28 18.5t12 40.5zM69 590l-13 7q21 81 48 81q13 0 38 -15l25 -15q7 -4 18 -4q17 0 36 40l14 -7q-21 -82 -50 -82q-12 0 -32 10l-23 13q-17 10 -26 10q-14 0 -35 -38z
" />
    <glyph glyph-name="adieresis" unicode="&#xe4;" horiz-adv-x="291" 
d="M241 431v-363q0 -25 13 -25q18 0 29 17q4 4 5 4q3 0 3 -5q-3 -23 -18.5 -41t-33.5 -18q-34 0 -59 38q-34 -38 -69 -38q-87 0 -87 162q0 84 22 124t105 106q14 11 17 22t3 44t-9 44t-33 11q-20 0 -47 -13t-42 -28q-3 -3 -8 -3q-3 0 -3 5q0 14 38 48t75 34t68 -28.5
t31 -96.5zM171 102v262h-2q-42 -36 -56.5 -72.5t-14.5 -111.5q0 -56 4 -86.5t10.5 -40.5t18.5 -10q16 0 28 18.5t12 40.5zM91 674q33 0 33 -31q0 -14 -9.5 -23.5t-23.5 -9.5q-13 0 -23.5 9.5t-10.5 23.5t10 22.5t24 8.5zM201 674q33 0 33 -31q0 -14 -9.5 -23.5t-23.5 -9.5
q-13 0 -23.5 9.5t-10.5 23.5t10 22.5t24 8.5z" />
    <glyph glyph-name="aring" unicode="&#xe5;" horiz-adv-x="291" 
d="M241 431v-363q0 -25 13 -25q18 0 29 17q4 4 5 4q3 0 3 -5q-3 -23 -18.5 -41t-33.5 -18q-34 0 -59 38q-34 -38 -69 -38q-87 0 -87 162q0 84 22 124t105 106q14 11 17 22t3 44t-9 44t-33 11q-20 0 -47 -13t-42 -28q-3 -3 -8 -3q-3 0 -3 5q0 14 38 48t75 34t68 -28.5
t31 -96.5zM171 102v262h-2q-42 -36 -56.5 -72.5t-14.5 -111.5q0 -56 4 -86.5t10.5 -40.5t18.5 -10q16 0 28 18.5t12 40.5zM145 702q-24 0 -24 -47q0 -48 24 -48q25 0 25 48q0 47 -25 47zM145 726q27 0 48 -20.5t21 -50.5q0 -32 -20.5 -52t-48.5 -20q-26 0 -46.5 20.5
t-20.5 51.5q0 30 21 50.5t46 20.5z" />
    <glyph glyph-name="ae" unicode="&#xe6;" horiz-adv-x="415" 
d="M173 98v270h-2q-43 -39 -57 -76.5t-14 -111.5t6 -105.5t25 -31.5q15 0 28.5 14.5t13.5 40.5zM245 294v-77q0 -95 14.5 -134.5t48.5 -39.5q23 0 38 11t32 36q3 5 7 5q5 0 3 -6q-10 -39 -33.5 -64t-58.5 -25q-64 0 -98 46q-40 -46 -94 -46q-43 0 -60.5 42.5t-17.5 127.5
q0 79 24.5 118.5t102.5 103.5q13 11 16.5 22t3.5 44q0 55 -42 55q-20 0 -47 -13t-42 -28q-3 -3 -8 -3q-3 0 -3 5q0 14 38 48t75 34q46 0 74 -36q27 36 63 36q108 0 108 -188v-62q0 -12 -9 -12h-135zM245 332h74v100q0 81 -38 81q-36 0 -36 -81v-100z" />
    <glyph glyph-name="ccedilla" unicode="&#xe7;" horiz-adv-x="250" 
d="M78 -128l9 14q24 -11 48 -11q13 0 21.5 8.5t8.5 22.5q0 17 -18 24t-40 1l23 71q-54 8 -79 79.5t-25 218.5q0 124 31 190t87 66q66 0 86 -101q2 -8 -3 -8q-3 0 -6 5q-22 33 -37.5 47t-34.5 14q-26 0 -35.5 -43t-9.5 -170q0 -101 6 -158t16.5 -78t27.5 -21q36 0 66 53
q5 8 9 8q5 0 3 -7q-22 -85 -74 -95l-13 -42q24 3 42 -14t18 -41q0 -26 -18 -43t-44 -17q-27 0 -65 27z" />
    <glyph glyph-name="egrave" unicode="&#xe8;" horiz-adv-x="274" 
d="M104 294v-77q0 -95 14.5 -134.5t48.5 -39.5q23 0 38 11t32 36q3 5 7 5t3 -6q-10 -39 -33.5 -64t-58.5 -25q-68 0 -98.5 73t-30.5 241q0 113 30.5 177.5t83.5 64.5q108 0 108 -188v-62q0 -12 -9 -12h-135zM104 332h74v100q0 81 -38 81q-36 0 -36 -81v-100zM170 602l-6 -10
l-136 51q-14 5 -10 11l23 43q5 6 17 -4z" />
    <glyph glyph-name="eacute" unicode="&#xe9;" horiz-adv-x="274" 
d="M104 294v-77q0 -95 14.5 -134.5t48.5 -39.5q23 0 38 11t32 36q3 5 7 5t3 -6q-10 -39 -33.5 -64t-58.5 -25q-68 0 -98.5 73t-30.5 241q0 113 30.5 177.5t83.5 64.5q108 0 108 -188v-62q0 -12 -9 -12h-135zM104 332h74v100q0 81 -38 81q-36 0 -36 -81v-100zM110 593l-6 10
l113 91q11 11 16 4l24 -43q3 -5 -10 -11z" />
    <glyph glyph-name="ecircumflex" unicode="&#xea;" horiz-adv-x="274" 
d="M104 294v-77q0 -95 14.5 -134.5t48.5 -39.5q23 0 38 11t32 36q3 5 7 5t3 -6q-10 -39 -33.5 -64t-58.5 -25q-68 0 -98.5 73t-30.5 241q0 113 30.5 177.5t83.5 64.5q108 0 108 -188v-62q0 -12 -9 -12h-135zM104 332h74v100q0 81 -38 81q-36 0 -36 -81v-100zM206 587l-58 50
q-12 10 -22 0l-58 -50l-11 8l68 108q3 8 12 8q8 0 13 -8l67 -108z" />
    <glyph glyph-name="edieresis" unicode="&#xeb;" horiz-adv-x="274" 
d="M104 294v-77q0 -95 14.5 -134.5t48.5 -39.5q23 0 38 11t32 36q3 5 7 5t3 -6q-10 -39 -33.5 -64t-58.5 -25q-68 0 -98.5 73t-30.5 241q0 113 30.5 177.5t83.5 64.5q108 0 108 -188v-62q0 -12 -9 -12h-135zM104 332h74v100q0 81 -38 81q-36 0 -36 -81v-100zM83 674
q33 0 33 -31q0 -14 -9.5 -23.5t-23.5 -9.5q-13 0 -23.5 9.5t-10.5 23.5t10 22.5t24 8.5zM193 674q33 0 33 -31q0 -14 -9.5 -23.5t-23.5 -9.5q-13 0 -23.5 9.5t-10.5 23.5t10 22.5t24 8.5z" />
    <glyph glyph-name="igrave" unicode="&#xec;" horiz-adv-x="154" 
d="M42 55v453q0 5 -3 8l-30 28q-4 6 -4 8q0 4 6 4h96q5 0 5 -6v-495q0 -7 2 -9l31 -35q4 -4 4 -7q0 -4 -6 -4h-132q-6 0 -6 4q0 3 4 7l31 35q2 2 2 9zM110 602l-6 -10l-137 51q-14 5 -10 11l24 43q5 6 17 -4z" />
    <glyph glyph-name="iacute" unicode="&#xed;" horiz-adv-x="154" 
d="M42 55v453q0 5 -3 8l-30 28q-4 6 -4 8q0 4 6 4h96q5 0 5 -6v-495q0 -7 2 -9l31 -35q4 -4 4 -7q0 -4 -6 -4h-132q-6 0 -6 4q0 3 4 7l31 35q2 2 2 9zM50 593l-6 10l113 91q11 11 16 4l24 -43q3 -5 -10 -11z" />
    <glyph glyph-name="icircumflex" unicode="&#xee;" horiz-adv-x="154" 
d="M42 55v453q0 5 -3 8l-30 28q-4 6 -4 8q0 4 6 4h96q5 0 5 -6v-495q0 -7 2 -9l31 -35q4 -4 4 -7q0 -4 -6 -4h-132q-6 0 -6 4q0 3 4 7l31 35q2 2 2 9zM140 587l-58 50q-12 10 -22 0l-58 -50l-11 8l68 108q3 8 12 8q8 0 13 -8l67 -108z" />
    <glyph glyph-name="idieresis" unicode="&#xef;" horiz-adv-x="154" 
d="M42 55v453q0 5 -3 8l-30 28q-4 6 -4 8q0 4 6 4h96q5 0 5 -6v-495q0 -7 2 -9l31 -35q4 -4 4 -7q0 -4 -6 -4h-132q-6 0 -6 4q0 3 4 7l31 35q2 2 2 9zM17 674q33 0 33 -31q0 -14 -9.5 -23.5t-23.5 -9.5t-24.5 9.5t-10.5 23.5t10.5 22.5t24.5 8.5zM127 674q33 0 33 -31
q0 -14 -9.5 -23.5t-23.5 -9.5q-13 0 -23.5 9.5t-10.5 23.5t10 22.5t24 8.5z" />
    <glyph glyph-name="eth" unicode="&#xf0;" horiz-adv-x="289" 
d="M144 43q15 0 23 17t13 75t5 167q0 85 -5 132t-13.5 63t-22.5 16t-22 -16t-13 -63t-5 -132q0 -109 5 -167t13 -75t22 -17zM158 647l-73 -53l-21 26l78 57q-13 20 -40 38t-57 22q-6 1 -5 8q2 5 9 5q79 0 125 -50l68 50l21 -26l-68 -50q29 -35 48.5 -131.5t19.5 -212.5
q0 -96 -9 -162.5t-26.5 -102t-37.5 -50.5t-46 -15q-35 0 -59.5 22.5t-41.5 92.5t-17 187q0 254 118 254q12 0 38 -16q0 57 -24 107z" />
    <glyph glyph-name="ntilde" unicode="&#xf1;" horiz-adv-x="308" 
d="M112 550v-29h2q33 35 69 35q38 0 60.5 -26.5t22.5 -75.5v-399q0 -7 2 -9l31 -35q4 -4 4 -7q0 -4 -6 -4h-132q-6 0 -6 4q0 3 4 7l31 35q2 2 2 9v400q0 58 -34 58q-19 0 -34.5 -24.5t-15.5 -62.5v-371q0 -7 1 -9l31 -35q5 -3 5 -7t-6 -4h-132q-6 0 -6 4t4 7l31 35q2 2 2 9
v453q0 5 -3 8l-30 28q-4 6 -4 8q0 4 6 4h96q5 0 5 -6zM77 590l-13 7q21 81 48 81q13 0 38 -15l25 -15q7 -4 18 -4q17 0 36 40l14 -7q-21 -82 -50 -82q-12 0 -32 10l-23 13q-17 10 -26 10q-14 0 -35 -38z" />
    <glyph glyph-name="ograve" unicode="&#xf2;" horiz-adv-x="289" 
d="M144 556q119 0 119 -254q0 -171 -31.5 -236.5t-87.5 -65.5q-35 0 -59.5 22.5t-41.5 92.5t-17 187q0 254 118 254zM144 43q15 0 23 17t13 75t5 167q0 85 -5 132t-13.5 63t-22.5 16t-22 -16t-13 -63t-5 -132q0 -109 5 -167t13 -75t22 -17zM177 602l-6 -10l-136 51
q-14 5 -10 11l23 43q5 6 17 -4z" />
    <glyph glyph-name="oacute" unicode="&#xf3;" horiz-adv-x="289" 
d="M144 556q119 0 119 -254q0 -171 -31.5 -236.5t-87.5 -65.5q-35 0 -59.5 22.5t-41.5 92.5t-17 187q0 254 118 254zM144 43q15 0 23 17t13 75t5 167q0 85 -5 132t-13.5 63t-22.5 16t-22 -16t-13 -63t-5 -132q0 -109 5 -167t13 -75t22 -17zM118 593l-6 10l113 91q11 11 16 4
l24 -43q3 -5 -10 -11z" />
    <glyph glyph-name="ocircumflex" unicode="&#xf4;" horiz-adv-x="289" 
d="M144 556q119 0 119 -254q0 -171 -31.5 -236.5t-87.5 -65.5q-35 0 -59.5 22.5t-41.5 92.5t-17 187q0 254 118 254zM144 43q15 0 23 17t13 75t5 167q0 85 -5 132t-13.5 63t-22.5 16t-22 -16t-13 -63t-5 -132q0 -109 5 -167t13 -75t22 -17zM212 587l-58 50q-12 10 -22 0
l-58 -50l-11 8l68 108q3 8 12 8q8 0 13 -8l67 -108z" />
    <glyph glyph-name="otilde" unicode="&#xf5;" horiz-adv-x="289" 
d="M144 556q119 0 119 -254q0 -171 -31.5 -236.5t-87.5 -65.5q-35 0 -59.5 22.5t-41.5 92.5t-17 187q0 254 118 254zM144 43q15 0 23 17t13 75t5 167q0 85 -5 132t-13.5 63t-22.5 16t-22 -16t-13 -63t-5 -132q0 -109 5 -167t13 -75t22 -17zM68 590l-13 7q21 81 48 81
q13 0 38 -15l25 -15q7 -4 18 -4q17 0 36 40l14 -7q-9 -35 -22.5 -58.5t-27.5 -23.5q-12 0 -32 10l-23 13q-17 10 -26 10q-14 0 -35 -38z" />
    <glyph glyph-name="odieresis" unicode="&#xf6;" horiz-adv-x="289" 
d="M144 556q119 0 119 -254q0 -171 -31.5 -236.5t-87.5 -65.5q-35 0 -59.5 22.5t-41.5 92.5t-17 187q0 254 118 254zM144 43q15 0 23 17t13 75t5 167q0 85 -5 132t-13.5 63t-22.5 16t-22 -16t-13 -63t-5 -132q0 -109 5 -167t13 -75t22 -17zM90 674q33 0 33 -31
q0 -14 -9.5 -23.5t-23.5 -9.5q-13 0 -23.5 9.5t-10.5 23.5t10 22.5t24 8.5zM200 674q33 0 33 -31q0 -14 -9.5 -23.5t-23.5 -9.5q-13 0 -23.5 9.5t-10.5 23.5t10 22.5t24 8.5z" />
    <glyph glyph-name="divide" unicode="&#xf7;" 
d="M552 228h-504v50h504v-50zM244 460q0 23 16.5 39.5t39.5 16.5q22 0 39 -17t17 -39q0 -21 -17 -38.5t-38 -17.5q-23 0 -40 16.5t-17 39.5zM244 46q0 23 16.5 39.5t39.5 16.5q22 0 39 -17t17 -39q0 -21 -17 -38.5t-38 -17.5q-23 0 -40 16.5t-17 39.5z" />
    <glyph glyph-name="oslash" unicode="&#xf8;" horiz-adv-x="289" 
d="M106 235l75 186q-6 92 -37 92q-14 0 -22 -16t-13 -63t-5 -132v-67h2zM183 337l-74 -186q2 -44 7.5 -68.5t11.5 -32t16 -7.5q15 0 23 17t13 75t5 167v35h-2zM268 542l-28 -68q23 -61 23 -172q0 -171 -31.5 -236.5t-87.5 -65.5q-51 0 -77 49l-20 -49l-32 14l33 81
q-22 72 -22 207q0 254 118 254q47 0 76 -40l16 40z" />
    <glyph glyph-name="ugrave" unicode="&#xf9;" horiz-adv-x="308" 
d="M266 550v-495q0 -7 1 -9l31 -35q5 -3 5 -7t-7 -4h-93q-7 0 -7 4v34h-2q-32 -38 -67 -38q-85 0 -85 102v406q0 5 -3 8l-30 28q-4 6 -4 8q0 4 6 4h96q5 0 5 -6v-449q0 -58 39 -58q19 0 32 22t13 58v385q0 5 -3 8l-29 28q-5 5 -5 8q0 4 6 4h96q5 0 5 -6zM187 602l-6 -10
l-136 51q-14 5 -10 11l23 43q5 6 17 -4z" />
    <glyph glyph-name="uacute" unicode="&#xfa;" horiz-adv-x="308" 
d="M266 550v-495q0 -7 1 -9l31 -35q5 -3 5 -7t-7 -4h-93q-7 0 -7 4v34h-2q-32 -38 -67 -38q-85 0 -85 102v406q0 5 -3 8l-30 28q-4 6 -4 8q0 4 6 4h96q5 0 5 -6v-449q0 -58 39 -58q19 0 32 22t13 58v385q0 5 -3 8l-29 28q-5 5 -5 8q0 4 6 4h96q5 0 5 -6zM127 593l-6 10
l113 91q11 11 16 4l24 -43q3 -5 -10 -11z" />
    <glyph glyph-name="ucircumflex" unicode="&#xfb;" horiz-adv-x="308" 
d="M266 550v-495q0 -7 1 -9l31 -35q5 -3 5 -7t-7 -4h-93q-7 0 -7 4v34h-2q-32 -38 -67 -38q-85 0 -85 102v406q0 5 -3 8l-30 28q-4 6 -4 8q0 4 6 4h96q5 0 5 -6v-449q0 -58 39 -58q19 0 32 22t13 58v385q0 5 -3 8l-29 28q-5 5 -5 8q0 4 6 4h96q5 0 5 -6zM223 587l-58 50
q-12 10 -22 0l-58 -50l-11 8l68 108q3 8 12 8q8 0 13 -8l67 -108z" />
    <glyph glyph-name="udieresis" unicode="&#xfc;" horiz-adv-x="308" 
d="M266 550v-495q0 -7 1 -9l31 -35q5 -3 5 -7t-7 -4h-93q-7 0 -7 4v34h-2q-32 -38 -67 -38q-85 0 -85 102v406q0 5 -3 8l-30 28q-4 6 -4 8q0 4 6 4h96q5 0 5 -6v-449q0 -58 39 -58q19 0 32 22t13 58v385q0 5 -3 8l-29 28q-5 5 -5 8q0 4 6 4h96q5 0 5 -6zM100 674
q33 0 33 -31q0 -14 -9.5 -23.5t-23.5 -9.5q-13 0 -23.5 9.5t-10.5 23.5t10 22.5t24 8.5zM210 674q33 0 33 -31q0 -14 -9.5 -23.5t-23.5 -9.5q-13 0 -23.5 9.5t-10.5 23.5t10 22.5t24 8.5z" />
    <glyph glyph-name="yacute" unicode="&#xfd;" horiz-adv-x="259" 
d="M10 556h111q6 0 6 -4t-3 -8l-19 -25q-5 -9 -4 -19l36 -290h2l29 290q2 12 -5 19l-22 25q-4 4 -4 8t6 4h106q6 0 6 -4q0 -5 -4 -8l-25 -24q-6 -6 -8 -18l-67 -541q-6 -46 -24 -69.5t-43 -23.5q-33 0 -52 32.5t-19 62.5q0 7 4 7q5 0 8 -7q9 -18 14 -27t14 -17t19 -8
q32 0 32 57q0 36 -7 88l-60 446q-2 10 -7 15l-22 27q-4 6 -4 8q0 4 6 4zM103 593l-6 10l113 91q11 11 16 4l24 -43q3 -5 -10 -11z" />
    <glyph glyph-name="thorn" unicode="&#xfe;" horiz-adv-x="297" 
d="M42 -78v786q0 5 -4 8l-29 23q-4 3 -4 7t6 4h95q6 0 6 -6v-223h2q31 35 66 35q19 0 33 -8t28.5 -32t22 -76.5t7.5 -132.5q-1 -81 -6.5 -139.5t-13.5 -90.5t-21 -50t-24.5 -22.5t-26.5 -4.5q-37 0 -65 38h-2v-116q0 -7 1 -8l31 -35q5 -5 5 -8t-6 -3h-132q-6 0 -6 3q0 4 4 8
l31 35q2 1 2 8zM112 438v-321q0 -30 15.5 -52t33.5 -22q12 0 18 15t10 73t4 176q0 90 -4.5 135.5t-11.5 58t-21 12.5q-13 0 -28.5 -21t-15.5 -54z" />
    <glyph glyph-name="ydieresis" unicode="&#xff;" horiz-adv-x="259" 
d="M10 556h111q6 0 6 -4t-3 -8l-19 -25q-5 -9 -4 -19l36 -290h2l29 290q2 12 -5 19l-22 25q-4 4 -4 8t6 4h106q6 0 6 -4q0 -5 -4 -8l-25 -24q-6 -6 -8 -18l-67 -541q-6 -46 -24 -69.5t-43 -23.5q-33 0 -52 32.5t-19 62.5q0 7 4 7q5 0 8 -7q9 -18 14 -27t14 -17t19 -8
q32 0 32 57q0 36 -7 88l-60 446q-2 10 -7 15l-22 27q-4 6 -4 8q0 4 6 4zM75 674q33 0 33 -31q0 -14 -9.5 -23.5t-23.5 -9.5q-13 0 -23.5 9.5t-10.5 23.5t10 22.5t24 8.5zM185 674q33 0 33 -31q0 -14 -9.5 -23.5t-23.5 -9.5q-13 0 -23.5 9.5t-10.5 23.5t10 22.5t24 8.5z" />
    <glyph glyph-name="dotlessi" unicode="&#x131;" horiz-adv-x="154" 
d="M42 55v453q0 5 -3 8l-30 28q-4 6 -4 8q0 4 6 4h96q5 0 5 -6v-495q0 -7 2 -9l31 -35q4 -4 4 -7q0 -4 -6 -4h-132q-6 0 -6 4q0 3 4 7l31 35q2 2 2 9z" />
    <glyph glyph-name="Lslash" unicode="&#x141;" horiz-adv-x="298" 
d="M135 435v-385h40q21 0 26 15l62 194q3 7 6 7q5 0 5 -7v-245q0 -14 -11 -14h-245q-6 0 -6 6q0 2 3 4.5t4 4.5l30 29q9 9 9 28v252h-2l-44 -67l-26 21l72 104v296q0 19 -9 28l-30 29l-3 3q-4 4 -4 6q0 6 6 6h157q6 0 6 -6q0 -2 -4 -6l-3 -3l-30 -29q-9 -9 -9 -28v-185h2
l50 75l26 -21z" />
    <glyph glyph-name="lslash" unicode="&#x142;" horiz-adv-x="154" 
d="M42 367v335q0 5 -3 8l-30 29q-4 4 -4 7q0 4 6 4h96q5 0 5 -6v-274h2l31 49l28 -19l-61 -90v-355q0 -7 2 -9l31 -35q4 -4 4 -7q0 -4 -6 -4h-132q-6 0 -6 4q0 3 4 7l31 35q2 2 2 9v252h-2l-24 -39l-28 19z" />
    <glyph glyph-name="OE" unicode="&#x152;" horiz-adv-x="449" 
d="M332 700h-57v-293h22q8 0 11 7l35 70q3 6 6 6q4 0 4 -6v-212q0 -5 -4 -5q-3 0 -7 7l-34 73q-3 7 -11 7h-22v-304h57q21 0 27 18l54 192q1 6 7 6q5 0 5 -6v-251q0 -9 -8 -9h-256q-34 0 -59 24t-38.5 60.5t-22 92t-11 105.5t-2.5 113q0 355 135 355h254q8 0 8 -9v-249
q0 -6 -5 -6q-6 0 -8 7l-54 188q-6 19 -26 19zM198 76v597q0 27 -25 27q-63 0 -63 -306q0 -189 16 -266.5t49 -77.5q23 0 23 26z" />
    <glyph glyph-name="oe" unicode="&#x153;" horiz-adv-x="426" 
d="M144 43q15 0 23.5 17.5t13.5 78t5 175.5q0 79 -5 123.5t-14 60t-23 15.5t-22 -15.5t-13 -60t-5 -123.5q0 -115 5 -175.5t13 -78t22 -17.5zM256 294v-77q0 -95 14.5 -134.5t48.5 -39.5q23 0 38 11t32 36q3 5 7 5t3 -6q-10 -39 -33.5 -64t-58.5 -25q-66 0 -88 58
q-26 -58 -75 -58q-35 0 -59.5 22.5t-41.5 92.5t-17 187q0 254 118 254q23 0 43.5 -14.5t32.5 -38.5q23 53 72 53q108 0 108 -188v-62q0 -12 -9 -12h-135zM256 332h74v100q0 81 -38 81q-36 0 -36 -81v-100z" />
    <glyph glyph-name="Scaron" unicode="&#x160;" horiz-adv-x="278" 
d="M238 739v-248q0 -5 -6 -5q-4 0 -6 7q-14 71 -46 139t-64 68q-17 0 -22 -11.5t-5 -35.5q0 -39 17 -91t70 -164q51 -109 64.5 -154t13.5 -106q0 -72 -28.5 -105t-63.5 -33q-28 0 -56 19q-16 10 -20 10q-3 0 -32 -22q-9 -7 -12 -7q-5 0 -5 5v252q0 7 5 7q4 0 6 -7
q9 -40 17 -68t21.5 -64t31 -55.5t38.5 -19.5q29 0 29 52q0 47 -20 104t-67 156q-74 156 -74 263q0 125 92 125q27 0 56 -23q10 -6 15 -6q7 0 23 16q15 13 21 13q7 0 7 -11zM146 836l58 50l11 -8l-68 -108q-3 -8 -12 -8q-8 0 -13 8l-67 108l11 8l58 -50q10 -10 22 0z" />
    <glyph glyph-name="scaron" unicode="&#x161;" horiz-adv-x="240" 
d="M201 546v-188q0 -8 -6 -8q-4 0 -6 9q-11 55 -30 104q-20 50 -46 50q-25 0 -25 -54q0 -65 61 -163q65 -104 65 -196q0 -44 -26 -72t-60 -28q-35 0 -60 32l-26 -27q-8 -5 -10 -5q-3 0 -3 7v192q0 7 4 7t6 -9q30 -154 76 -154q32 0 32 43q0 76 -64 180q-57 95 -57 183
q0 46 23.5 76.5t52.5 30.5q32 0 59 -32l29 26q6 6 7 6q4 0 4 -10zM125 661l58 50l11 -8l-68 -108q-3 -8 -12 -8q-8 0 -13 8l-67 108l11 8l58 -50q10 -10 22 0z" />
    <glyph glyph-name="Ydieresis" unicode="&#x178;" horiz-adv-x="325" 
d="M123 72v239l-74 367q-1 12 -11 23l-28 34q-6 9 -6 11q0 4 7 4h143q8 0 8 -5t-7 -10l-31 -29q-6 -6 -3 -19l45 -221h2l47 221q3 13 -4 19l-32 29q-7 5 -7 10t9 5h132q8 0 8 -4t-7 -11l-33 -34q-7 -8 -10 -23l-71 -336v-270q0 -19 9 -28l30 -29l3 -3q4 -4 4 -6q0 -6 -6 -6
h-157q-6 0 -6 6q0 2 4 6l3 3l30 29q9 9 9 28zM108 849q33 0 33 -31q0 -14 -9.5 -23.5t-23.5 -9.5q-13 0 -23.5 9.5t-10.5 23.5t10 22.5t24 8.5zM218 849q33 0 33 -31q0 -14 -9.5 -23.5t-23.5 -9.5q-13 0 -23.5 9.5t-10.5 23.5t10 22.5t24 8.5z" />
    <glyph glyph-name="Zcaron" unicode="&#x17d;" horiz-adv-x="313" 
d="M30 497v247q0 6 8 6h241q6 0 6 -6l-2 -10l-176 -684h78q19 0 23 12l65 191q6 13 10 13q6 0 6 -13v-245q0 -8 -9 -8h-252q-4 0 -4 4q0 7 1 12l177 686h-72q-13 0 -19 -13l-62 -189q-6 -15 -11 -15q-8 0 -8 12zM168 836l58 50l11 -8l-68 -108q-3 -8 -12 -8q-8 0 -13 8
l-67 108l11 8l58 -50q10 -10 22 0z" />
    <glyph glyph-name="zcaron" unicode="&#x17e;" horiz-adv-x="263" 
d="M29 368v180q0 8 9 8h184q5 0 5 -5q0 -4 -1 -7l-120 -510h53q16 0 20 13l47 141q2 10 7 10q4 0 4 -10v-181q0 -7 -8 -7h-200q-3 0 -3 4v7l129 511h-48q-13 0 -19 -14l-46 -137q-3 -11 -8 -11t-5 8zM143 661l58 50l11 -8l-68 -108q-3 -8 -12 -8q-8 0 -13 8l-67 108l11 8
l58 -50q10 -10 22 0z" />
    <glyph glyph-name="florin" unicode="&#x192;" horiz-adv-x="266" 
d="M95 368h-74v42h74q5 166 15 233q8 51 30 79t56 28q29 0 49.5 -27t20.5 -58q0 -11 -6 -11t-9 8q-16 38 -51 38t-35 -92v-198h81v-42h-81v-79q0 -206 -10 -293q-15 -128 -85 -128q-27 0 -49 27t-22 55q0 10 7 10q6 0 9 -8q14 -34 43 -34q37 0 37 63v387z" />
    <glyph glyph-name="circumflex" unicode="&#x2c6;" horiz-adv-x="216" 
d="M177 637l-58 50q-12 10 -22 0l-58 -50l-11 8l68 108q3 8 12 8q8 0 13 -8l67 -108z" />
    <glyph glyph-name="caron" unicode="&#x2c7;" horiz-adv-x="216" 
d="M119 711l58 50l11 -8l-68 -108q-3 -8 -12 -8q-8 0 -13 8l-67 108l11 8l58 -50q10 -10 22 0z" />
    <glyph glyph-name="uni02C9" unicode="&#x2c9;" horiz-adv-x="212" 
d="M28 702h156v-40h-156v40z" />
    <glyph glyph-name="breve" unicode="&#x2d8;" horiz-adv-x="212" 
d="M106 645q-32 0 -52 22t-26 61h17q18 -43 61 -43q44 0 62 43h16q-15 -83 -78 -83z" />
    <glyph glyph-name="dotaccent" unicode="&#x2d9;" horiz-adv-x="123" 
d="M62 724q33 0 33 -31q0 -14 -9.5 -23.5t-23.5 -9.5q-13 0 -23.5 9.5t-10.5 23.5t10 22.5t24 8.5z" />
    <glyph glyph-name="ring" unicode="&#x2da;" horiz-adv-x="192" 
d="M95 752q-24 0 -24 -47q0 -48 24 -48q25 0 25 48q0 47 -25 47zM95 776q27 0 48 -20.5t21 -50.5q0 -32 -20.5 -52t-48.5 -20q-26 0 -46.5 20.5t-20.5 51.5q0 30 21 50.5t46 20.5z" />
    <glyph glyph-name="ogonek" unicode="&#x2db;" horiz-adv-x="183" 
d="M82 11h29q-43 -59 -43 -98q0 -15 8 -24t20 -9q23 0 47 20l12 -20q-37 -35 -73 -35q-54 0 -54 55q0 26 18.5 63t35.5 48z" />
    <glyph glyph-name="tilde" unicode="&#x2dc;" horiz-adv-x="230" 
d="M38 640l-13 7q21 81 48 81q13 0 38 -15l25 -15q7 -4 18 -4q17 0 36 40l14 -7q-9 -35 -22.5 -58.5t-27.5 -23.5q-12 0 -32 10l-23 13q-17 10 -26 10q-14 0 -35 -38z" />
    <glyph glyph-name="hungarumlaut" unicode="&#x2dd;" horiz-adv-x="305" 
d="M134 766l31 -37q6 -5 -6 -13l-123 -79l-8 9l91 113q10 12 15 7zM244 766l31 -37q6 -5 -6 -13l-123 -79l-8 9l91 113q10 12 15 7z" />
    <glyph glyph-name="uni03A9" unicode="&#x3a9;" horiz-adv-x="401" 
d="M381 125l-11 -125h-141l-4 11q69 273 69 406q0 140 -26.5 214.5t-68.5 74.5q-43 0 -68.5 -70.5t-25.5 -219.5q0 -151 70 -404l-5 -12h-140l-11 125l22 1q7 -42 18 -55t28 -13h55q-109 193 -109 362q0 143 48 228t120 85q71 0 118.5 -84.5t47.5 -227.5q0 -152 -105 -353
q-3 -7 -5 -10h56q20 0 28.5 12t17.5 56z" />
    <glyph glyph-name="uni03BC" unicode="&#x3bc;" horiz-adv-x="308" 
d="M42 -124v632q0 5 -3 8l-30 28q-4 6 -4 8q0 4 6 4h96q5 0 5 -6v-449q0 -58 32 -58q22 0 37 22t15 55v388q0 5 -3 8l-29 28q-5 5 -5 8q0 4 6 4h96q5 0 5 -6v-495q0 -7 1 -9l31 -35q5 -3 5 -7t-7 -4h-93q-7 0 -7 4v34h-2q-28 -38 -91 -38q-12 -8 -12 -38q0 -23 23 -48
l31 -35q4 -6 4 -8q0 -3 -6 -3h-94q-7 0 -7 8z" />
    <glyph glyph-name="pi" unicode="&#x3c0;" horiz-adv-x="382" 
d="M341 465l21 -6q-5 -31 -24 -74q-13 -4 -50 -4q-4 -65 -4 -245q0 -96 33 -96q17 0 36 28l12 -17q-28 -64 -75 -64q-67 0 -67 132q0 121 8 265q-18 0 -44 0.5t-42 0.5v-21q0 -109 -10.5 -194t-20.5 -117.5t-19 -47.5q-24 -14 -48 -18l-6 16q71 116 71 384q-25 0 -41.5 -4.5
t-25.5 -10.5t-26 -21l-12 20q1 1 6.5 8t8.5 10.5t10.5 11.5t14 12.5t16.5 10.5t20 9.5t23.5 6t27.5 2.5t67.5 -2t95.5 -2q21 0 28.5 5t15.5 22z" />
    <glyph glyph-name="uni2010" unicode="&#x2010;" horiz-adv-x="192" 
d="M28 338h136v-42h-136v42z" />
    <glyph glyph-name="endash" unicode="&#x2013;" horiz-adv-x="500" 
d="M0 338h500v-42h-500v42z" />
    <glyph glyph-name="emdash" unicode="&#x2014;" horiz-adv-x="1000" 
d="M0 338h1000v-42h-1000v42z" />
    <glyph glyph-name="quoteleft" unicode="&#x2018;" horiz-adv-x="134" 
d="M64 528q-36 0 -36 68q0 45 16 83t32.5 54.5t24.5 16.5q5 0 5 -4q0 -2 -2.5 -5t-6.5 -7.5t-6 -7.5q-19 -28 -26.5 -57t-3.5 -41q40 -3 40 -52q0 -48 -37 -48z" />
    <glyph glyph-name="quoteright" unicode="&#x2019;" horiz-adv-x="134" 
d="M70 750q36 0 36 -68q0 -45 -16 -83t-32.5 -54.5t-24.5 -16.5q-5 0 -5 4q0 2 2.5 5t6.5 7.5t6 7.5q19 28 26.5 57t3.5 41q-40 3 -40 52q0 48 37 48z" />
    <glyph glyph-name="quotesinglbase" unicode="&#x201a;" horiz-adv-x="134" 
d="M70 100q36 0 36 -68q0 -45 -16 -83t-32.5 -54.5t-24.5 -16.5q-5 0 -5 4q0 2 2.5 5t6.5 7.5t6 7.5q19 28 26.5 57t3.5 41q-40 3 -40 52q0 48 37 48z" />
    <glyph glyph-name="quotedblleft" unicode="&#x201c;" horiz-adv-x="257" 
d="M64 528q-36 0 -36 68q0 45 16 83t32.5 54.5t24.5 16.5q5 0 5 -4q0 -2 -2.5 -5t-6.5 -7.5t-6 -7.5q-19 -28 -26.5 -57t-3.5 -41q40 -3 40 -52q0 -48 -37 -48zM187 528q-36 0 -36 68q0 45 16 83t32.5 54.5t24.5 16.5q5 0 5 -4q0 -2 -2.5 -5t-6.5 -7.5t-6 -7.5
q-19 -28 -26.5 -57t-3.5 -41q40 -3 40 -52q0 -48 -37 -48z" />
    <glyph glyph-name="quotedblright" unicode="&#x201d;" horiz-adv-x="257" 
d="M70 750q36 0 36 -68q0 -45 -16 -83t-32.5 -54.5t-24.5 -16.5q-5 0 -5 4q0 2 2.5 5t6.5 7.5t6 7.5q19 28 26.5 57t3.5 41q-40 3 -40 52q0 48 37 48zM193 750q36 0 36 -68q0 -45 -16 -83t-32.5 -54.5t-24.5 -16.5q-5 0 -5 4q0 2 2.5 5t6.5 7.5t6 7.5q19 28 26.5 57t3.5 41
q-40 3 -40 52q0 48 37 48z" />
    <glyph glyph-name="quotedblbase" unicode="&#x201e;" horiz-adv-x="257" 
d="M70 100q36 0 36 -68q0 -45 -16 -83t-32.5 -54.5t-24.5 -16.5q-5 0 -5 4q0 2 2.5 5t6.5 7.5t6 7.5q19 28 26.5 57t3.5 41q-40 3 -40 52q0 48 37 48zM193 100q36 0 36 -68q0 -45 -16 -83t-32.5 -54.5t-24.5 -16.5q-5 0 -5 4q0 2 2.5 5t6.5 7.5t6 7.5q19 28 26.5 57t3.5 41
q-40 3 -40 52q0 48 37 48z" />
    <glyph glyph-name="dagger" unicode="&#x2020;" horiz-adv-x="270" 
d="M119 542l-92 -14q-15 -2 -15 4v50q0 6 16 4l91 -15l-13 162q-2 17 9 17h39q12 0 10 -16l-13 -163l91 15q16 2 16 -4v-50q0 -6 -15 -4l-92 14l9 -126l-13 -468q-2 -23 -11 -23t-11 23l-14 468z" />
    <glyph glyph-name="daggerdbl" unicode="&#x2021;" horiz-adv-x="270" 
d="M111 457l8 85l-92 -14q-15 -2 -15 4v50q0 6 16 4l91 -15l-13 162q-2 17 9 17h39q12 0 10 -16l-13 -163l91 15q16 2 16 -4v-50q0 -6 -15 -4l-92 14l9 -85l-9 -95l91 15q16 2 16 -4v-50q0 -6 -15 -4l-92 14l9 -126l-13 -257q-2 -23 -11 -23t-11 23l-14 257l8 126l-92 -14
q-15 -2 -15 4v50q0 6 16 4l91 -15z" />
    <glyph glyph-name="bullet" unicode="&#x2022;" horiz-adv-x="162" 
d="M80 477q30 0 44 -22.5t14 -54.5q0 -34 -14 -57t-44 -23q-28 0 -42 23.5t-14 56.5q0 31 14 54t42 23z" />
    <glyph glyph-name="ellipsis" unicode="&#x2026;" horiz-adv-x="500" 
d="M83 101q36 0 36 -51q0 -50 -36 -50q-18 0 -27 15t-9 35q0 21 9 36t27 15zM250 101q36 0 36 -51q0 -50 -36 -50q-18 0 -27 15t-9 35q0 21 9 36t27 15zM417 101q36 0 36 -51q0 -50 -36 -50q-18 0 -27 15t-9 35q0 21 9 36t27 15z" />
    <glyph glyph-name="perthousand" unicode="&#x2030;" horiz-adv-x="688" 
d="M347 333q-42 0 -42 -152q0 -153 42 -153q43 0 43 153q0 152 -43 152zM352 739l-201 -739l-43 11l201 739zM113 722q-42 0 -42 -152q0 -153 42 -153q43 0 43 153q0 152 -43 152zM347 361q40 0 71 -41.5t31 -138.5q0 -98 -31 -139.5t-71 -41.5q-39 0 -70 41.5t-31 139.5
q0 97 31 138.5t70 41.5zM113 750q40 0 71 -41.5t31 -138.5q0 -98 -31 -139.5t-71 -41.5q-39 0 -70 41.5t-31 139.5q0 97 31 138.5t70 41.5zM574 333q-42 0 -42 -152q0 -153 42 -153q43 0 43 153q0 152 -43 152zM574 361q40 0 71 -41.5t31 -138.5q0 -98 -31 -139.5t-71 -41.5
q-39 0 -70 41.5t-31 139.5q0 97 31 138.5t70 41.5z" />
    <glyph glyph-name="guilsinglleft" unicode="&#x2039;" horiz-adv-x="187" 
d="M158 547l-63 -118l63 -118q4 -10 -3.5 -13.5t-13.5 3.5l-109 117q-8 11 0 22l109 117q6 7 13.5 3t3.5 -13z" />
    <glyph glyph-name="guilsinglright" unicode="&#x203a;" horiz-adv-x="187" 
d="M92 429l-63 118q-4 9 3.5 13t13.5 -3l109 -117q8 -11 0 -22l-109 -117q-6 -7 -13.5 -3.5t-3.5 13.5z" />
    <glyph glyph-name="fraction" unicode="&#x2044;" horiz-adv-x="84" 
d="M163 739l-201 -739l-43 11l201 739z" />
    <glyph glyph-name="Euro" unicode="&#x20ac;" horiz-adv-x="307" 
d="M170 700q-30 0 -40.5 -60t-11.5 -203h85v-36h-85v-52h85v-36h-85q1 -143 11.5 -203t40.5 -60q36 1 66 55t30 82q0 11 10 11q8 0 8 -11q0 -41 -9.5 -81t-35.5 -73t-65 -33q-125 0 -130 313h-31v36h31v52h-31v36h31q5 313 130 313q38 0 63.5 -33t34.5 -73t9 -82
q0 -11 -8 -11q-9 0 -9 11q0 28 -29.5 83t-64.5 55z" />
    <glyph glyph-name="afii61289" unicode="&#x2113;" horiz-adv-x="295" 
d="M263 106l18 -12q-36 -93 -112 -93q-57 0 -77 41q-21 41 -21 147v101l-33 -35l-11 21l44 49v126q0 128 7.5 182.5t29.5 90.5q28 52 65 52q30 0 47.5 -34.5t17.5 -95.5q0 -152 -102 -303v-132q0 -90 13.5 -125t43.5 -35q23 0 38 12.5t32 42.5zM136 509v-121q30 51 48 125.5
t18 138.5q0 97 -32 97q-12 0 -19.5 -21.5t-11 -74t-3.5 -144.5z" />
    <glyph glyph-name="trademark" unicode="&#x2122;" horiz-adv-x="521" 
d="M102 343v379h-23q-5 0 -10 -12l-33 -114q-1 -4 -4 -4q-4 0 -4 4v151q0 3 4 3h191q3 0 3 -3v-151q0 -4 -4 -4t-5 4l-33 114q-3 12 -8 12h-24v-379q0 -11 6 -17l19 -17l5 -5q0 -4 -5 -4h-101q-4 0 -4 4l5 5l19 17q6 6 6 17zM256 343v364q0 9 -5 17l-16 17l-3 3q-3 1 -3 2
q0 4 5 4h85q6 0 8 -10l31 -232h2l37 232q2 10 7 10h85q4 0 4 -4q0 -1 -4 -5l-17 -17q-5 -8 -5 -17v-364q0 -9 5 -17l17 -17q4 -4 4 -5q0 -4 -4 -4h-91q-4 0 -4 4l2 2q2 2 3 4l13 16q4 5 4 17v271q0 5 -2 5q-4 0 -4 -6l-44 -309q0 -4 -5 -4h-14q-2 0 -4 5l-41 308q-2 6 -5 6
q-2 0 -2 -5v-271q0 -10 4 -17l14 -16q1 -2 3 -4l2 -2q0 -4 -5 -4h-79q-5 0 -5 4q0 1 3 2l3 3l16 17q5 8 5 17z" />
    <glyph glyph-name="Omega" unicode="&#x2126;" horiz-adv-x="401" 
d="M381 125l-11 -125h-141l-4 11q69 273 69 406q0 140 -26.5 214.5t-68.5 74.5q-43 0 -68.5 -70.5t-25.5 -219.5q0 -151 70 -404l-5 -12h-140l-11 125l22 1q7 -42 18 -55t28 -13h55q-109 193 -109 362q0 143 48 228t120 85q71 0 118.5 -84.5t47.5 -227.5q0 -152 -105 -353
q-3 -7 -5 -10h56q20 0 28.5 12t17.5 56z" />
    <glyph glyph-name="estimated" unicode="&#x212e;" horiz-adv-x="903" 
d="M867 364h-674q-5 0 -5 -4v-204q0 -14 9 -24q107 -110 254 -110q161 0 269 124h59q-57 -67 -143.5 -106.5t-185.5 -39.5q-172 0 -293.5 109.5t-121.5 264.5t121.5 264.5t293.5 109.5q173 0 295 -109.5t122 -264.5v-10zM714 391v205q0 14 -10 24q-108 106 -253 106
q-146 0 -253 -109q-10 -10 -10 -26v-200q0 -7 5 -7h517q4 0 4 7z" />
    <glyph glyph-name="partialdiff" unicode="&#x2202;" horiz-adv-x="338" 
d="M172 429h1q44 0 70 -51q6 51 8 114q5 77 -15 155q-26 98 -84 98q-41 0 -78 -37q-5 -1 -10.5 8t-8.5 22t-1 22q36 33 80 33q87 0 134 -146q33 -103 33 -236q0 -143 -30 -253q-21 -72 -54 -114.5t-75 -42.5q-51 0 -81.5 50t-30.5 144q0 82 38 160q16 31 44.5 52.5
t59.5 21.5zM183 396h-1q-37 0 -61 -61q-30 -88 -30 -191q0 -44 13 -81t37 -37q38 0 66 111q22 87 30 198q-17 61 -54 61z" />
    <glyph glyph-name="uni2206" unicode="&#x2206;" horiz-adv-x="398" 
d="M375 0h-353v22l162 703l24 9l167 -712v-22zM297 42l-118 539l-117 -539h235z" />
    <glyph glyph-name="product" unicode="&#x220f;" horiz-adv-x="436" 
d="M417 718v-24q-41 -4 -50.5 -15.5t-9.5 -56.5v-619q0 -45 10 -58t49 -16v-23h-170v23q33 3 40.5 14.5t7.5 58.5v660q0 17 -4.5 22.5t-21.5 5.5h-100q-17 0 -21.5 -5t-4.5 -24v-659q0 -24 0.5 -30.5t2 -18t7 -13.5t13.5 -5.5t23 -5.5v-23h-168v23q39 4 48.5 15.5t9.5 57.5
v620q0 44 -9.5 55.5t-50.5 16.5v24h399z" />
    <glyph glyph-name="summation" unicode="&#x2211;" horiz-adv-x="350" 
d="M334 56l-29 -150h-283v20l154 364l-151 409v19h284q2 -32 7 -131l-24 -4q-8 48 -17 70q-8 22 -22.5 29t-52.5 7h-98l131 -344l-157 -374h142q43 0 59 14.5t34 76.5z" />
    <glyph glyph-name="minus" unicode="&#x2212;" 
d="M552 228h-504v50h504v-50z" />
    <glyph glyph-name="uni2215" unicode="&#x2215;" horiz-adv-x="84" 
d="M163 739l-201 -739l-43 11l201 739z" />
    <glyph glyph-name="uni2219" unicode="&#x2219;" horiz-adv-x="129" 
d="M64 450q19 0 28 -15t9 -35q0 -21 -9 -36t-28 -15q-18 0 -27 15t-9 36q0 20 9 35t27 15z" />
    <glyph glyph-name="radical" unicode="&#x221a;" horiz-adv-x="383" 
d="M367 920l-116 -1076l-16 -6l-144 548l-60 -22l-7 29l114 43l100 -420h2l95 910z" />
    <glyph glyph-name="infinity" unicode="&#x221e;" horiz-adv-x="566" 
d="M532 304v-1q0 -56 -34 -90.5t-81 -34.5q-35 0 -66 18.5t-67 65.5q-34 -41 -65.5 -62.5t-72.5 -21.5q-47 0 -80 34.5t-33 86.5q0 54 33 88.5t85 34.5q69 0 135 -84l10 11q10 11 11.5 12.5t10.5 11t12 11.5t11.5 9.5t13.5 10t14 7.5t16.5 6.5t16.5 3t19 1.5
q48 0 79.5 -32.5t31.5 -85.5zM152 222h1q21 0 42 13t31.5 24.5t32.5 37.5q-21 28 -33 42t-33.5 27t-44.5 13q-33 0 -51.5 -23t-17.5 -58q0 -33 21 -54.5t52 -21.5zM416 379h-1q-13 0 -25.5 -4.5t-25.5 -16t-19.5 -17.5t-20.5 -22.5t-15 -17.5q37 -45 58.5 -62t50.5 -17
q31 0 50 23.5t19 53.5q0 37 -19.5 58.5t-51.5 21.5z" />
    <glyph glyph-name="integral" unicode="&#x222b;" horiz-adv-x="292" 
d="M124 4l-17 440q-4 106 3 183.5t20 118.5t33 65t36.5 30t37.5 6q19 0 33 -11t14 -29q0 -17 -10.5 -26.5t-26.5 -9.5q-14 0 -23.5 16.5t-19.5 16.5q-42 0 -36 -153l16 -385q4 -107 -1 -187.5t-16 -128t-29.5 -76.5t-37.5 -39t-43 -10q-21 0 -35 12t-13 29q-1 19 11.5 30
t30.5 11q15 0 25 -18.5t18 -18.5q36 0 30 134z" />
    <glyph glyph-name="approxequal" unicode="&#x2248;" horiz-adv-x="346" 
d="M291 412l32 -21q-11 -35 -34.5 -59t-54.5 -24q-28 0 -68 29q-35 27 -55 27q-35 0 -57 -57l-33 20q13 37 38 59.5t55 22.5q27 0 72 -29q38 -27 52 -27q17 0 28.5 14.5t24.5 44.5zM291 285l32 -21q-12 -36 -35 -59.5t-53 -23.5t-69 29q-37 27 -55 27q-34 0 -57 -58l-33 20
q13 38 37.5 60t55.5 22t72 -29q39 -26 52 -26q17 0 28.5 14.5t24.5 44.5z" />
    <glyph glyph-name="notequal" unicode="&#x2260;" horiz-adv-x="346" 
d="M252 453l-25 -63h84v-48h-99l-39 -99h138v-47h-153l-29 -74l-35 13l24 61h-85v47h101l37 99h-138v48h154l30 76z" />
    <glyph glyph-name="lessequal" unicode="&#x2264;" horiz-adv-x="346" 
d="M310 136l-274 180v48l274 179v-59l-229 -142v-3l229 -143v-60zM313 53h-278v50h278v-50z" />
    <glyph glyph-name="greaterequal" unicode="&#x2265;" horiz-adv-x="346" 
d="M38 543l274 -179v-48l-275 -180v59l229 143v2l-228 144v59zM313 53h-279v50h279v-50z" />
    <glyph glyph-name="lozenge" unicode="&#x25ca;" horiz-adv-x="388" 
d="M349 356l-124 -405h-63l-124 405l126 406h62zM299 356l-103 354h-3l-105 -353l105 -357h3z" />
    <glyph glyph-name="fi" unicode="&#xfb01;" horiz-adv-x="308" 
d="M196 55v453q0 5 -3 8l-30 28q-4 6 -4 8q0 4 6 4h96q5 0 5 -6v-495q0 -7 2 -9l31 -35q4 -4 4 -7q0 -4 -6 -4h-132q-6 0 -6 4q0 3 4 7l31 35q2 2 2 9zM42 55v440q0 7 -9 18l-30 31q-3 2 -4 5t0.5 5t3.5 2h31q8 0 8 9v33q0 70 42 111t91 41q95 0 95 -52q0 -20 -10 -31
t-26 -11q-12 0 -21.5 9t-11.5 20q-6 30 -34 30q-55 0 -55 -123v-27q0 -9 8 -9h30q2 0 3.5 -2t0.5 -5t-4 -5l-30 -31q-8 -10 -8 -18v-440q0 -7 1 -9l37 -35q4 -4 4 -7q0 -4 -6 -4h-137q-6 0 -6 4t4 7l31 35q2 2 2 9z" />
    <glyph glyph-name="fl" unicode="&#xfb02;" horiz-adv-x="312" 
d="M42 55v440q0 7 -9 18l-30 31q-3 2 -4 5t0.5 5t3.5 2h31q8 0 8 9v33q0 70 42 111t91 41h90q5 0 5 -6v-689q0 -7 2 -9l31 -35q4 -4 4 -7q0 -4 -6 -4h-132q-6 0 -6 4q0 3 4 7l31 35q2 2 2 9v647q0 5 -13 9t-20 4q-55 0 -55 -123v-27q0 -9 8 -9h30q2 0 3.5 -2t0.5 -5t-4 -5
l-30 -31q-8 -10 -8 -18v-440q0 -7 1 -9l37 -35q4 -4 4 -7q0 -4 -6 -4h-137q-6 0 -6 4t4 7l31 35q2 2 2 9z" />
    <glyph glyph-name="a.superior" horiz-adv-x="216" 
d="M164 675v-218q0 -14 9 -14q13 0 16 7q3 5 6 5q4 0 1 -10q-11 -29 -33 -29q-21 0 -42 21q-21 -21 -53 -21q-49 0 -49 102q0 48 16 71.5t67 62.5q12 9 12 31q0 39 -28 39q-31 0 -50 -19q-5 -5 -9 -5t-4 5q0 4 8 14.5t27 21.5t42 11q24 0 44 -17t20 -58zM114 480v155h-2
q-27 -20 -35 -44t-8 -67q0 -48 4.5 -64t15.5 -16q10 0 17.5 11t7.5 25z" />
    <glyph glyph-name="o.superior" horiz-adv-x="216" 
d="M108 750q36 0 62.5 -40t26.5 -125q0 -88 -26 -128.5t-63 -40.5q-39 0 -64 40t-25 129q0 85 26.5 125t62.5 40zM108 722q-39 0 -39 -137q0 -141 39 -141t39 141q0 137 -39 137z" />
    <glyph glyph-name="one.superior" horiz-adv-x="170" 
d="M60 343v335q0 5 -3 7l-29 15q-4 2 -4 4t5 4q46 9 66 37l5 5h9q6 0 4 -7q-3 -12 -3 -61v-339q0 -11 6 -17l19 -17l5 -5q0 -4 -4 -4h-100q-5 0 -5 4l5 5l20 17q4 3 4 17z" />
    <glyph glyph-name="two.superior" horiz-adv-x="207" 
d="M166 300h-131q-6 0 -2 8l11 22q0 4 -1 15t-1 17q0 48 40 116q45 74 45 173q0 37 -6 52t-20 15q-9 0 -17 -4t-14.5 -12.5t-10 -14t-9.5 -18.5t-8 -16q-3 -6 -9 -6q-5 0 -5 8q5 39 29.5 67t54.5 28q31 0 49 -25.5t18 -72.5q0 -103 -64 -195q-32 -49 -32 -89q0 -22 8 -30h48
q5 0 9 9l20 49q4 7 7 7q4 0 4 -5l-7 -93q0 -5 -6 -5z" />
    <glyph glyph-name="three.superior" horiz-adv-x="211" 
d="M70 530v9q0 5 6 5q23 0 39.5 20.5t16.5 67.5q0 84 -32 84q-8 0 -15.5 -4.5t-13.5 -10.5t-11.5 -14.5t-9 -15t-6.5 -12.5l-3 -6q-3 -6 -9 -6q-4 0 -4 8q5 39 29.5 67t54.5 28q31 0 51 -27t20 -76q0 -48 -17.5 -75.5t-40.5 -35.5v-1q58 -20 58 -119q0 -116 -83 -116
q-37 0 -54.5 34t-17.5 80q0 8 5 8q7 0 8 -7q2 -12 7.5 -28t19 -34.5t28.5 -18.5q18 0 27 19t9 72q0 48 -17 74.5t-39 26.5q-6 0 -6 4z" />
    </font>
</defs>
</svg>
